<?xml version="1.0" standalone="no"?>
<!DOCTYPE svg PUBLIC "-//W3C//DTD SVG 1.1//EN" "http://www.w3.org/Graphics/SVG/1.1/DTD/svg11.dtd">
<svg xmlns="http://www.w3.org/2000/svg">
<metadata>Copyright (C) 2012 by original authors @ fontello.com</metadata>
<defs>
<font id="typicons" horiz-adv-x="1000" >
<font-face font-family="typicons" font-weight="400" font-stretch="normal" units-per-em="1000" ascent="850" descent="-150" />
<missing-glyph horiz-adv-x="1000" />
<glyph glyph-name="infinity" unicode="&#xe913;" d="M0 350q0 93 66 159t159 66 159-66l73-69 73 70q65 65 158 65 91 0 158-66t67-159-67-159-158-66q-93 0-159 66l-71 69-74-70q-65-65-158-65t-159 66-66 159z m225 95q-39 0-67-28t-28-67q0-40 28-68t68-28 68 28l69 68-69 66q-29 29-68 29z m529-163q28 28 28 68t-28 68-67 28-67-28l-70-68 69-66q28-28 68-28t68 27z" horiz-adv-x="911" />
<glyph glyph-name="sun" unicode="&#xe8d6;" d="M542 766l-51-153-53 153q-8 21 3 42t31 28q30 10 56-12t14-58z m-469-364l153-53-153-53q-21-8-42 3t-28 32q-10 30 12 56t58 14z m365-469l53 153 51-153q8-21-3-42t-31-28q-30-10-56 12t-14 58z m469 364l-153 53 153 53q21 8 42-3t28-32q10-30-12-56t-58-14z m-675 384l71-145-145 71q-21 10-28 31t3 43q16 31 50 30t49-30z m-74-589l145 71-71-145q-10-21-31-28t-43 3q-31 16-30 50t30 49z m590-74l-71 145 145-71q21-10 28-31t-3-43q-16-31-50-30t-49 30z m74 589l-145-71 71 145q10 21 31 28t43-3q31-16 30-50t-30-49z m-331-493q-96 0-166 69t-69 166 69 166 166 69 165-69 69-166-69-166-165-69z m0 365q-54 0-93-38t-39-92 39-92 93-38 92 38 38 92-38 92-92 38z" horiz-adv-x="980" />
<glyph glyph-name="cog" unicode="&#xe87b;" d="M250 87q-5 20-24 31t-40 5l-76-23q-21-6-44 3t-33 28l-26 45q-10 19-6 43t19 39l56 55q15 15 15 36t-15 36l-56 55q-16 15-19 39t8 43l25 46q10 19 33 28t44 3l76-21q21-6 40 5t24 31l19 76q6 21 25 36t40 15l51 0q21 0 40-15t25-36l20-76q6-21 24-31t38-5l76 21q21 6 44-3t33-28l26-46q10-19 6-43t-19-39l-56-55q-16-15-16-36t16-36l56-55q15-15 19-39t-6-43l-26-45q-10-19-33-28t-44-3l-76 23q-20 5-38-5t-24-31l-20-78q-6-21-25-36t-40-14l-51 0q-21 0-40 14t-25 36z m110 366q-44 0-74-31t-31-73 31-73 74-31q43 0 73 30t31 74-31 74-73 30z" horiz-adv-x="718" />
<glyph glyph-name="attention-filled" unicode="&#xe85d;" d="M991 186q64-106 11-199-51-93-176-93l-625 0q-126 0-178 93-53 93 11 199l309 514q63 106 170 106 106 0 169-106z m-478 363q-34 0-58-24t-24-58 24-57 58-23 57 23 23 57-23 58-57 24z m88-441q8 9 0 18t-16 4q-29-11-36-11-28 0-13 45l20 64q16 51-3 89t-64 40q-31 1-60-11t-41-23-15-14q-8-9 0-17t16-3q25 10 38 10 28 0 13-45l-21-64q-18-54 4-91t72-38q30 0 57 12t38 22 13 14z" horiz-adv-x="1026" />
<glyph glyph-name="flash" unicode="&#xe8da;" d="M598 349q23-13 26-39t-16-45l-391-370q-14-14-35-14-28 0-43 24t-6 49l113 270-220 128q-21 13-25 39t15 45l391 370q11 14 35 14 21 0 37-16t16-37q0-13-5-23l-111-268z" horiz-adv-x="624" />
<glyph glyph-name="scissors" unicode="&#xe907;" d="M873 702q13-15 0-31t-30-9q-46 21-76 5 29-43 29-93 0-69-48-117t-117-48q-61 0-109 41l-34-61q56-64 76-91t65-99l18-28q60-83-41-231l-1-3q-9-11-23-11t-21 13l-163 298-163-298q-8-14-23-14-13 0-21 11-4 5-13 19t-23 42-22 56-6 61 21 58q94 140 158 214l-34 63q-48-41-109-41-69 0-117 48t-48 117 48 117 117 48q41 0 79-20t59-54q20-30 48-86t48-85q20 29 48 85t48 86q51 74 138 74l4 0 10 6q56 35 124 24t105-68z m-709-181q21 0 36 16t15 37-15 36-36 15-37-15-16-36 16-37 37-16z m234-176q11 0 19 8t8 18q0 11-8 19t-19 8-19-8-8-19q0-10 8-18t19-8z m235 176q21 0 36 16t15 37-15 36-36 15-37-15-16-36 16-37 37-16z" horiz-adv-x="879" />
<glyph glyph-name="pencil" unicode="&#xe853;" d="M938 605q23-23 23-55t-23-55l-570-570q-21-21-59-38t-73-17l-235 0 0 234q0 35 17 74t38 60l570 570q23 23 55 23t55-23z m-794-426l65-64 431 433-64 64z m91-205q14 0 33 9-10 10-26 26t-50 50-56 56l-23 23q-9-21-9-33l0-78 53-53 79 0z m74 40l433 433-64 64-433-431z m469 469l68 68-165 165-68-66z" horiz-adv-x="960" />
<glyph glyph-name="cw" unicode="&#xe8ab;" d="M121 340q0-74 54-128t128-54q46 0 88 23t65 61q13 20 38 26t46-8q21-14 26-38t-8-45q-18-28-41-51-89-89-214-89t-214 89-89 214 89 214 214 89q105 0 186-64l60 60q31 31 54 22t23-53l0-268-268 0q-44 0-53 23t22 54l76 76q-44 29-100 29-74 0-128-54t-54-128z" horiz-adv-x="625" />
<glyph glyph-name="sun-filled" unicode="&#xe8d7;" d="M491 614l-53 153q-8 21 3 42t31 28q30 10 56-12t14-58z m-418-211l154-53-154-53q-21-8-42 3t-28 32q-10 30 12 56t58 14z m418-316l51-153q8-21-3-42t-31-28q-30-10-56 12t-14 58z m486 281q10-30-12-56t-58-14l-153 53 153 53q21 8 42-3t28-32z m-819 240q-21 10-28 31t3 43q16 31 50 30t49-30l71-145z m0-614q-31 16-30 50t30 49l145 71-71-145q-10-21-31-28t-43 3z m664 99q21-10 28-31t-3-43q-16-31-50-30t-49 30l-71 145z m0 614q31-16 30-50t-30-49l-145-71 71 145q10 21 31 28t43-3z m-331-121q96 0 165-69t69-166-69-166-165-69-166 69-69 166 69 166 166 69z" horiz-adv-x="980" />
<glyph glyph-name="contrast" unicode="&#xe8d1;" d="M416 767q173 0 295-122t123-294-123-294-295-122-294 122-122 294 122 294 294 122z m0-729q129 0 221 91t92 221-92 221-221 91-221-91-92-221 92-221 221-91z m0 573q108 0 184-76t77-184-77-184-184-76l0 520z" horiz-adv-x="834" />
<glyph glyph-name="anchor-outline" unicode="&#xe90c;" d="M416 676q0 53 53 53t53-53-53-53-53 53z m-364-260q0 64 46 110t110 46l21 0q-21 48-21 104 0 108 76 184t184 76 184-76 76-184q0-56-21-104l21 0q45 0 81-23t56-56q20-35 20-78 0-33-10-58 63-46 63-125 0-134-66-240t-168-166q-110-63-235-63-99 0-185 39t-146 99-99 146-39 185q0 79 63 125-10 25-10 58z m104-130q-21 0-37-16t-16-37q0-150 108-258t258-108 258 108 108 258q0 21-16 37t-37 16-37-16-16-37q0-95-61-166t-147-89l0 385 208 0q21 0 37 16t16 37-16 36-37 15l-208 0 0 63q45 16 74 55t29 91q0 65-46 111t-111 46-111-46-46-111q0-51 30-91t74-56l0-63-208 0q-21 0-37-15t-16-36 16-37 37-16l208 0 0-385q-86 18-147 89t-61 166q0 21-16 37t-37 16z m69 25q35-31 35-78 0-119 105-180l0 258-140 0z m348-258q45 26 75 73t30 107q0 46 35 78l-140 0 0-258z m-156 623q0 53 53 53t53-53-53-53-53 53z" horiz-adv-x="938" />
<glyph glyph-name="anchor" unicode="&#xe90d;" d="M678 286q21 0 36-16t15-37q0-151-106-258t-258-107-258 107-107 258q0 21 16 37t37 16 36-16 15-37q0-94 59-166t149-89l0 385-209 0q-21 0-36 16t-15 37 15 36 36 15l209 0 0 63q-46 16-75 56t-29 90q0 65 46 111t111 46 111-46 46-111q0-50-29-90t-76-56l0-63 209 0q21 0 37-15t16-36-16-37-37-16l-209 0 0-385q90 18 149 89t59 166q0 21 16 37t37 16z m-313 443q-21 0-37-16t-16-37 16-37 37-16 36 16 15 37-15 37-36 16z" horiz-adv-x="729" />
<glyph glyph-name="archive" unicode="&#xe872;" d="M573 376q11 0 19-8t8-19-8-19-19-8l-156 0q-11 0-19 8t-8 19 8 19 19 8l156 0z m365 365q21 0 37-16t16-37-16-37-37-16l-885 0q-21 0-37 16t-16 37 16 37 37 16l885 0z m-104-156q21 0 36-16t15-37l0-416q0-65-46-111t-111-46l-469 0q-65 0-111 46t-46 111l0 416q0 21 16 37t37 16l678 0z m-105-521q21 0 37 16t16 37l0 364-573 0 0-364q0-21 15-37t36-16l469 0z" horiz-adv-x="990" />
<glyph glyph-name="reply-outline" unicode="&#xe84b;" d="M938-1q0-21-15-36t-38-15q-26 0-43 24-60 93-138 133t-183 48l0-75q0-43-31-74-30-30-74-29t-73 29l-329 323q-15 15-15 38t15 38l328 323q29 29 73 29t74-29q31-31 31-74l0-89q181-36 299-180t118-330l0-53z m-468 260q224-5 353-110-30 126-129 214t-231 103l-46 3 0 183-290-286 290-286 0 183q39-1 54-1z" horiz-adv-x="938" />
<glyph glyph-name="reply" unicode="&#xe84c;" d="M365 702q20 0 36-16t16-37l0-133q178-20 298-153t120-313l0-53q-80 121-183 163t-235 46l0-130q0-21-16-37t-36-16q-23 0-38 15l-328 324 328 324q15 15 38 15z" horiz-adv-x="834" />
<glyph glyph-name="down-outline" unicode="&#xe8a2;" d="M416-153l-370 371q-46 46-46 110t46 110q43 43 106 44t108-38l0 253q0 65 46 111t111 46 111-46 46-111l0-253q45 40 109 38t106-44q46-46 46-110t-46-110z m-260 534q-23 0-38-15t-15-37 15-37l298-298 298 298q15 15 15 37t-15 37-37 15-37-15l-171-173 0 504q0 21-16 36t-37 15-36-15-15-36l0-504-173 173q-15 15-36 15z" horiz-adv-x="834" />
<glyph glyph-name="down" unicode="&#xe89e;" d="M700 391q31-31 31-74t-31-74l-334-334-335 334q-31 31-31 74t31 74 74 31 74-31l83-83 0 378q0 43 31 73t74 31q43 0 73-31t31-73l0-378 83 83q31 31 74 31t74-31z" horiz-adv-x="731" />
<glyph glyph-name="down-small" unicode="&#xe8a6;" d="M505 346q15-15 15-37t-15-37l-245-245-245 245q-15 15-15 37t15 37 37 15 37-15l120-119 0 395q0 21 15 36t36 15 37-15 16-36l0-395 120 119q15 15 36 15t36-15z" horiz-adv-x="520" />
<glyph glyph-name="forward-outline" unicode="&#xe84d;" d="M53-53q-23 0-38 16t-15 36l0 53q0 186 118 330t299 180l0 89q0 43 31 74 30 30 74 29t73-29l328-323q15-15 15-38t-15-38l-329-323q-29-29-73-29t-74 29q-31 31-31 74l0 75q-105-8-183-48t-138-133q-16-24-43-24z m416 311l53 1 0-183 290 286-290 286 0-183q-20 0-46-3-133-15-231-103t-129-214q129 105 354 110z" horiz-adv-x="938" />
<glyph glyph-name="forward" unicode="&#xe84e;" d="M416 650q0 21 16 37t37 16 36-15l329-324-329-324q-15-15-36-15t-37 16-16 37l0 130q-133-4-234-46t-182-163l0 53q0 180 119 313t297 153l0 133z" horiz-adv-x="834" />
<glyph glyph-name="left-outline" unicode="&#xe8a3;" d="M638 91q0-64-46-110t-110-46-110 46l-371 370 371 371q44 44 110 44t110-44q46-46 46-110 0-61-40-105l253 0q65 0 111-46t46-111-46-111-111-46l-253 0q40-44 40-104z m-490 260l298-296q15-15 37-15t37 15 15 36-15 36l-173 173 504 0q21 0 36 15t15 36-15 37-36 16l-504 0 173 171q15 15 15 38 0 21-15 36t-37 15-37-15z" horiz-adv-x="1006" />
<glyph glyph-name="left" unicode="&#xe89f;" d="M776 454q43 0 73-31t31-74q0-43-30-73t-74-31l-378 0 83-83q31-30 31-73t-31-74q-30-30-74-30t-74 30l-334 334 334 335q31 31 74 31t74-31q31-30 31-73t-31-74l-83-83 378 0z" horiz-adv-x="880" />
<glyph glyph-name="left-small" unicode="&#xe8a7;" d="M595 403q21 0 36-16t15-37-15-37-36-16l-395 0 119-119q15-15 15-37t-15-37-36-15q-23 0-38 15l-245 245 245 245q15 15 37 15t37-15 15-37-15-37l-119-119 395 0z" horiz-adv-x="646" />
<glyph glyph-name="loop-alt-outline" unicode="&#xe8b0;" d="M781 793q64 0 110-46t46-110l0-9q113-29 186-128t74-228q0-151-106-258t-258-107l-469 0q-151 0-258 107t-107 258 107 258 258 106l51 0q61 0 104-39l151 150q45 45 110 45z m53-781q108 0 184 77t76 184-69 184-165 76l-109 0 66 68q15 15 15 37t-15 37-36 15-36-15l-194-194 194-193q15-15 36-15t36 15 15 37-15 37l-66 68 109 0q54 0 92-46t38-111-46-111-111-46l-469 0q-65 0-111 46t-46 111 46 111 111 46l51 0q21 0 37 15t16 36-16 37-37 16l-51 0q-108 0-184-76t-77-184 77-184 184-77l469 0z m51 313q0-43-31-73t-73-31q-44 0-74 30l-194 194q-11-30-38-49t-60-19l-51 0q-44 0-74-31t-31-73q0-44 31-74t74-31l469 0q43 0 73 31t31 74q0 38-19 67t-46 36q13-21 13-51z" horiz-adv-x="1198" />
<glyph glyph-name="loop-alt" unicode="&#xe8b1;" d="M703 533q96 0 166-77t69-184-76-184-184-76l-418 0q-108 0-184 76t-76 184 76 184 184 77q21 0 37-16t16-37-16-37-37-16q-65 0-111-46t-46-111 46-111 111-46l418 0q65 0 111 46t46 111-39 111-93 46l-108 0 66-68q15-15 15-36t-15-36q-16-16-36-16t-36 16l-194 193 194 193q15 15 36 15t36-15 15-36-15-36l-66-68 108 0z" horiz-adv-x="938" />
<glyph glyph-name="resize-full-outline" unicode="&#xe88e;" d="M613 845l378 0 0-365q0-50-29-90t-76-56l0-374-364 0q-16-46-61-76t-96-29l-365 0 0 365q0 50 29 90t76 56q0 1-1 3t-1 3l0 369 363 0q16 46 56 75t90 29z m169-781l0 264q0 21-16 37t-37 16-36-16-15-37l0-160-156 0q-21 0-37-15t-16-36 16-37 37-16l260 0z m-573 573l0-264q0-21 15-36t36-15 37 15 16 36l0 160 160 0q21 0 36 16t15 37-15 36-36 15l-264 0z m676-156l0 261-260 0q-21 0-37-16t-16-37 16-37 37-16l83 0-171-171q-15-15-15-37t15-37 36-15q23 0 38 15l171 171 0-83q0-21 16-36t37-15 36 15 15 36z m-520-520q21 0 36 15t15 36-15 37-36 16l-83 0 171 171q15 15 15 37t-15 37-38 15q-21 0-36-15l-171-171 0 83q0 21-16 37t-37 16-37-16-16-37l0-260 261 0z m51 416q43 0 74-31t31-73q0-28-16-54 6 1 19 1l101 0 0 108q0 1 1 5t1 6q-24-15-54-15-43 0-73 31t-31 74q0 28 15 53-1 0-5-1t-6-1l-108 0 0-108q0-1-1-5t-1-6q24 15 53 15z" horiz-adv-x="990" />
<glyph glyph-name="resize-full" unicode="&#xe88f;" d="M573 767l261 0 0-260q0-21-16-37t-37-16-37 16-16 37l0 83-171-171q-15-15-36-15-23 0-38 15t-15 37 15 37l171 171-83 0q-21 0-36 16t-15 37 15 36 36 15z m-296-484q15 15 36 15t36-15 15-37-15-37l-171-171 83 0q21 0 37-16t16-37-16-36-37-15l-260 0 0 260q0 21 16 37t37 16 36-16 15-37l0-83z m-120 68q-21 0-37 16t-16 37l0 260 261 0q21 0 36-16t15-37-15-36-36-15l-156 0 0-156q0-21-16-37t-37-16z m521 0q21 0 36-16t15-37l0-260-260 0q-21 0-37 16t-16 37 16 36 37 15l156 0 0 156q0 21 16 37t37 16z" horiz-adv-x="834" />
<glyph glyph-name="resize-normal-outline" unicode="&#xe890;" d="M834 845q64 0 110-46t46-110-46-110l-46-46q40-44 40-104 0-71-56-119 4-16 4-35l0-315-309 0q-23 0-39 5-48-58-121-58-63 0-106 41l-46-48q-46-46-108-46-64 0-110 46t-46 110q0 65 46 111l49 49q-36 44-36 101 0 66 51 114-6 31-6 39l0 316 316 0q11 0 34-5 48 56 119 56 63 0 105-39l45 45q46 46 111 46z m-625-209l0-208q0-21 15-37t36-16 37 16 16 37l0 104 104 0q21 0 37 16t16 37-16 36-37 15l-208 0z m661 16q15 15 15 36t-15 36q-16 16-36 16-21 0-38-16l-171-171 0 83q0 21-16 37t-37 16-36-16-15-37l0-260 260 0q21 0 37 16t16 37-16 36-37 15l-83 0z m-401-589l0 260-254 0q-21 0-37-15t-16-36 16-37 37-16l76 0-171-171q-15-15-15-37t15-37 36-15q19 0 34 15l175 178 0-89q0-21 15-37t36-16 37 16 16 37z m0 313l0 118q-28-14-49-14l-55 0 0-51q0-26-15-53l119 0z m53-53l0-120q26 16 55 16l49 0 0 55q0 40 38 49l-141 0z m3-208q0-21 16-37t37-16l205 0 0 209q0 21-16 36t-37 15-36-15-15-36l0-105-101 0q-21 0-37-15t-16-36z" horiz-adv-x="990" />
<glyph glyph-name="resize-normal" unicode="&#xe891;" d="M110 298l255 0 0-260q0-23-13-38t-34-15-37 16-16 37l0 89-178-178q-15-15-36-15-23 0-38 15t-15 37 15 37l171 171-76 0q-21 0-36 16t-15 37 15 36 36 15z m46 105q-21 0-37 15t-16 36l0 209 209 0q21 0 37-16t16-37-16-36-37-15l-104 0 0-105q0-21-16-36t-37-15z m521-105q21 0 36-15t15-36l0-209-208 0q-21 0-37 16t-16 37 16 36 37 15l104 0 0 105q0 21 16 36t37 15z m68 454q15 15 36 15t36-15 15-37-15-37l-171-171 83 0q21 0 37-16t16-37-16-36-37-15l-260 0 0 260q0 21 16 37t37 16 36-16 15-37l0-83z" horiz-adv-x="833" />
<glyph glyph-name="move-outline" unicode="&#xe892;" d="M1160 424q31-30 31-73t-31-74l-491-490q-31-31-73-31-43 0-74 31l-491 490q-31 31-31 74t31 73l491 490q31 31 74 31 41 0 73-31z m-304-283q20 0 36 16l194 193-194 193q-16 16-36 16-21 0-38-16-15-15-15-36t15-36l68-68-239 0 0 239 68-68q15-15 38-15 21 0 36 15t15 37-15 37l-193 193-194-193q-15-15-15-37t15-37 38-15q21 0 36 15l68 68 0-239-239 0 68 68q15 15 15 36t-15 36q-16 16-38 16-20 0-36-16l-194-193 194-193q16-16 36-16 21 0 38 16 15 15 15 36t-15 36l-68 68 239 0 0-239-68 68q-15 15-36 15-23 0-38-15t-15-37 15-37l194-193 193 193q15 15 15 37t-15 37-36 15q-23 0-38-15l-68-68 0 239 239 0-68-68q-15-15-15-36t15-36q16-16 38-16z m-90 105l-66 0 0-66q25 14 53 14 0 28 14 53z m-341 0q15-28 15-53 26 0 51-14l0 66-66 0z m0 208l66 0 0 66q-25-14-51-14 0-25-15-53z m341 0q-14 25-14 53-28 0-53 14l0-66 66 0z" horiz-adv-x="1191" />
<glyph glyph-name="move" unicode="&#xe893;" d="M788 543l193-193-193-193q-16-16-36-16-21 0-38 16-15 15-15 36t15 36l68 68-239 0 0-239 68 68q15 15 37 15t37-15 15-37-15-37l-194-193-193 193q-15 15-15 37t15 37 37 15 37-15l68-68 0 239-239 0 66-68q15-15 15-36t-15-36q-16-16-36-16-21 0-38 16l-193 193 193 193q15 15 37 15t37-15 15-36-15-36l-66-68 239 0 0 239-68-68q-15-15-37-15t-37 15-15 37 15 37l193 193 194-193q15-15 15-37t-15-37-38-15q-21 0-36 15l-68 68 0-239 239 0-68 68q-15 15-15 36t15 36 37 15 37-15z" horiz-adv-x="980" />
<glyph glyph-name="loop-outline" unicode="&#xe8ae;" d="M781 871q64 0 110-46t46-110l0-9q113-29 186-128t74-228q0-151-106-258t-258-107l-53 0q-60 0-104 40l-150-150q-46-46-111-46-64 0-110 46t-46 110q0 1 1 5t1 5q-113 29-187 128t-74 227q0 151 107 258t258 106l51 0q60 0 104-40l151 151q45 45 110 45z m53-781q108 0 184 77t76 184-69 184-165 76l-109 0 66 68q15 15 15 37t-15 37-36 15-36-15l-194-194 194-193q15-15 36-15t36 15 15 37-15 37l-66 68 109 0q54 0 92-46t38-111-46-111-111-46l-53 0q-21 0-37-16t-16-37 16-37 37-16l53 0z m-521 209q0 43 31 73t73 31q44 0 74-30l194-194q11 30 38 49t60 19l53 0q43 0 73 31t31 74q0 38-19 67t-46 36q13-21 13-51 0-43-31-73t-73-31q-44 0-74 30l-194 194q-11-30-38-49t-60-19l-51 0q-44 0-74-31t-31-73q0-38 19-67t46-36q-13 21-13 50z m156 260q0 21-16 37t-37 16l-51 0q-108 0-184-76t-77-184 69-184 166-77l109 0-68-68q-15-15-15-36t15-36q16-16 36-16 21 0 38 16l193 193-193 193q-16 16-38 16-20 0-36-16-15-15-15-36t15-36l68-68-109 0q-54 0-92 46t-38 111 46 111 111 46l51 0q21 0 37 15t16 36z" horiz-adv-x="1198" />
<glyph glyph-name="right-outline" unicode="&#xe8a4;" d="M525-66q-64 0-110 46t-46 110q0 11 1 20t5 19 7 16 11 22 14 27l-251 0q-65 0-111 46t-46 111 46 111 111 46l251 0q-5 11-14 27t-12 22-7 17-5 19-1 20q0 65 45 110 44 44 111 44t111-44l371-371-371-370q-46-46-110-46z m-369 469q-21 0-37-16t-16-37 16-36 37-15l503 0-171-173q-15-15-15-36t15-36 37-15 37 15l298 296-298 298q-15 15-37 15t-37-15-15-36q0-23 15-38l171-171-503 0z" horiz-adv-x="1006" />
<glyph glyph-name="right" unicode="&#xe8a0;" d="M399 684q31 31 74 31t74-31l334-335-334-334q-30-30-74-30t-74 30q-31 31-31 74t31 73l83 83-378 0q-44 0-74 31t-30 73q0 44 31 74t73 31l378 0-83 83q-31 31-31 74t31 73z" horiz-adv-x="880" />
<glyph glyph-name="right-small" unicode="&#xe8a8;" d="M328 595q15 15 37 15t37-15l245-245-245-245q-15-15-36-15-23 0-38 15t-15 37 15 37l120 119-395 0q-21 0-37 16t-16 37 16 37 37 16l395 0-120 119q-15 15-15 37t15 37z" horiz-adv-x="646" />
<glyph glyph-name="arrows-cw-outline" unicode="&#xe8ac;" d="M286 845q0 64 46 110t110 46q65 0 111-46l241-241q31-11 56-36 139-139 139-326 0-205-145-350-68-66-148-103 5-19 5-44 0-64-46-110t-109-46q-65 0-111 46l-244 244q-30 11-54 35-139 139-139 326 0 205 145 350 68 68 148 103-6 23-6 43z m228-884q149 5 258 114 114 114 114 276 0 145-108 253-15 15-36 15-23 0-38-15t-15-37 15-37q43-43 60-83t18-96q0-119-84-203-75-75-179-83l65 65q15 15 15 37t-15 37-36 15q-23 0-38-15l-193-194 193-193q15-15 38-15 21 0 36 15t15 37-15 37z m-40 779q-149-8-255-114-115-115-115-276 0-145 108-253 15-15 38-15 21 0 36 15t15 37-15 37q-43 43-59 83t-17 96q0 119 84 203 76 76 180 84l-66-68q-15-15-15-36t15-36q16-16 36-16 21 0 38 16l193 193-193 193q-16 16-38 16-20 0-36-16-15-15-15-36t15-36z m-135-215q-79-71-79-175 0-45 14-76t49-66q38-38 29-89l123 121q31 31 74 31 41 0 71-28t33-68q78 71 78 175 0 45-13 76t-48 66-29 88l-123-123q-30-30-74-30-41 0-71 28t-33 68z" horiz-adv-x="990" />
<glyph glyph-name="arrows-cw" unicode="&#xe8ad;" d="M781 352q0-161-115-276-109-109-256-114l70-69q15-15 15-37t-15-37-38-15q-21 0-36 15l-194 193 194 194q15 15 37 15t37-15 15-37-15-37l-65-65q104 8 179 83 84 84 84 203 0 55-18 96t-60 83q-15 15-15 37t15 37 37 15 37-15q108-108 108-253z m-678-1q0-55 18-96t60-83q15-15 15-37t-15-37-36-15q-23 0-38 15-108 108-108 253 0 161 115 276 106 106 255 114l-69 69q-15 15-15 36t15 36 37 15 37-15l194-193-194-193q-16-16-36-16-21 0-38 16-15 15-15 36t15 36l66 68q-104-8-180-84-84-84-84-203z" horiz-adv-x="781" />
<glyph glyph-name="up-outline" unicode="&#xe8a5;" d="M416-151q-65 0-111 46t-46 111l0 248q-45-40-108-38t-106 44q-46 46-46 111t46 111l370 371 371-371q46-46 46-111t-46-111q-43-43-106-44t-109 38l0-248q0-65-46-111t-111-46z m-51 655l0-499q0-21 15-37t36-16 37 16 16 37l0 499 171-171q15-15 37-15t37 15 15 37-15 37l-298 298-298-298q-15-15-15-37t15-37 37-15 37 15z" horiz-adv-x="834" />
<glyph glyph-name="up" unicode="&#xe8a1;" d="M366 790l334-334q31-31 31-74t-31-74-74-31-74 31l-83 83 0-378q0-44-31-74t-73-30q-44 0-74 31t-31 73l0 378-83-83q-31-31-74-31t-74 31-31 74 31 74z" horiz-adv-x="731" />
<glyph glyph-name="up-small" unicode="&#xe8a9;" d="M260 673l245-245q15-15 15-37t-15-37-36-15-36 15l-120 120 0-395q0-21-16-37t-37-16-36 16-15 37l0 395-120-120q-15-15-37-15t-37 15-15 37 15 37z" horiz-adv-x="520" />
<glyph glyph-name="at" unicode="&#xe916;" d="M416 767q173 0 295-122t123-294l0-26q0-65-46-111t-111-46q-78 0-125 63-56-63-136-63-75 0-128 54t-53 129 53 129 128 54q59 0 108-36 13 36 49 36 21 0 37-16t16-37l0-156q0-21 16-36t37-15 36 15 15 36l0 26q0 130-92 221t-221 91-221-91-92-221 92-221 221-91q98 0 176 54 18 13 39 8t34-22 8-39-22-34q-104-71-235-71-173 0-294 122t-122 294 122 294 294 122z m0-494q33 0 56 23t23 54-23 54-56 23q-31 0-54-23t-23-55 23-55 54-23z" horiz-adv-x="834" />
<glyph glyph-name="attach-outline" unicode="&#xe834;" d="M389 328q-11 0-18 8t-7 17q0 11 8 19l236 236q31 31 73 31 44 0 75-31 30-30 30-74t-30-74q-61-61-184-184t-184-184q-31-31-74-31t-74 31q-30 30-30 74t30 74l5 5q-36 48-36 110l-43-41q-61-61-61-148t61-148 148-61 148 61l368 369q61 61 61 147t-61 147-148 61q-85 0-146-61l-236-236q-39-39-39-91 0-54 39-93t91-39q54 0 93 39l111 110q30 30 30 74 0 43-31 74l-184-184q-8-8-19-8z m291 519q130 0 221-91t91-221q0-129-91-220l-368-369q-91-91-221-91t-221 91-91 221q0 129 91 220l369 369q91 91 220 91z" horiz-adv-x="993" />
<glyph glyph-name="attach" unicode="&#xe835;" d="M285 223q-53 0-91 38t-39 92q0 55 38 93l236 236q61 61 148 61t148-61 61-148-61-148l-369-369q-61-61-146-61-86 0-148 61t-61 148 61 148l41 41q0-61 38-110l-5-5q-30-30-30-74t30-74 74-30 74 30q61 61 184 184t184 184q30 30 30 74t-30 74q-31 30-74 30t-73-30l-236-236q-8-8-8-19t8-19 19-8 19 8l184 184q31-31 31-74 0-41-31-73l-110-111q-38-38-93-38z" horiz-adv-x="785" />
<glyph glyph-name="cancel-alt" unicode="&#xe822;" d="M936-67l-521 0q-56 0-116 30t-92 76l-136 191q-14 19-29 41t-24 33-8 12q-10 14-10 33t9 33q5 5 64 88l135 190q33 46 92 77t116 31l521 0q65 0 111-46t46-111l0-521q0-65-46-111t-111-46z m-821 416q6-9 21-29t21-28l136-191q18-25 55-44t68-19l521 0q21 0 36 16t15 37l0 521q0 21-15 36t-36 15l-521 0q-30 0-68-19t-55-44l-135-190q-8-10-22-31t-21-29z m545 0l139-138q13-13 5-29t-24-16q-10 0-19 9l-138 138-138-138q-9-9-19-9-16 0-24 16t5 29l138 138-138 139q-11 11-6 25t18 18 26-6l138-138 138 138q18 18 36-1t1-36z" horiz-adv-x="1093" />
<glyph glyph-name="cancel-alt-filled" unicode="&#xe823;" d="M911 741q54 0 92-38t38-92l0-521q0-54-38-92t-92-38l-521 0q-50 0-103 28t-82 68l-138 191q-59 84-61 86-13 18 0 35l8 11q9 13 24 34t31 42l135 190q29 40 83 68t104 28l521 0z m-120-510l-119 119 119 120q15 15 15 37t-15 37-37 15-37-15l-119-120-120 120q-15 15-37 15t-37-15-15-37 15-37l120-120-120-119q-15-15-15-37t15-37q16-16 38-16 20 0 36 16l120 119 119-119q16-16 38-16 20 0 36 16 15 15 15 37t-15 37z" horiz-adv-x="1041" />
<glyph glyph-name="bat-charge" unicode="&#xe8c7;" d="M156 506l573 0 0-313-573 0 0 313z m304-255l165 121-135-23-61 99-169-121 138 23z m425 255q44 0 74-31t31-73l0-104q0-44-31-74t-74-31q0-65-46-111t-111-46l-573 0q-65 0-111 46t-46 111l0 313q0 65 46 111t111 46l573 0q65 0 111-46t46-111z m-104-313l0 313q0 21-16 37t-37 16l-573 0q-21 0-37-16t-16-37l0-313q0-21 16-36t37-15l573 0q21 0 37 15t16 36z" horiz-adv-x="990" />
<glyph glyph-name="bat4" unicode="&#xe8c6;" d="M365 194q-21 0-37 16t-16 37l0 209q0 21 16 36t37 15 36-15 15-36l0-209q0-21-15-37t-36-16z m-156 0q-21 0-37 16t-16 37l0 209q0 21 16 36t37 15 36-15 15-36l0-209q0-21-15-37t-36-16z m469 0q-21 0-37 16t-16 37l0 209q0 21 16 36t37 15 36-15 15-36l0-209q0-21-15-37t-36-16z m-156 0q-21 0-37 16t-16 37l0 209q0 21 16 36t37 15 36-15 15-36l0-209q0-21-15-37t-36-16z m364 313q44 0 74-31t31-73l0-104q0-44-31-74t-74-31q0-65-46-111t-111-46l-573 0q-65 0-111 46t-46 111l0 313q0 65 46 111t111 46l573 0q65 0 111-46t46-111z m-104-313l0 313q0 21-16 37t-37 16l-573 0q-21 0-37-16t-16-37l0-313q0-21 16-36t37-15l573 0q21 0 37 15t16 36z" horiz-adv-x="990" />
<glyph glyph-name="bat3" unicode="&#xe8c5;" d="M365 194q-21 0-37 16t-16 37l0 209q0 21 16 36t37 15 36-15 15-36l0-209q0-21-15-37t-36-16z m-156 0q-21 0-37 16t-16 37l0 209q0 21 16 36t37 15 36-15 15-36l0-209q0-21-15-37t-36-16z m313 0q-21 0-37 16t-16 37l0 209q0 21 16 36t37 15 36-15 15-36l0-209q0-21-15-37t-36-16z m364 313q44 0 74-31t31-73l0-104q0-44-31-74t-74-31q0-65-46-111t-111-46l-573 0q-65 0-111 46t-46 111l0 313q0 65 46 111t111 46l573 0q65 0 111-46t46-111z m-104-313l0 313q0 21-16 37t-37 16l-573 0q-21 0-37-16t-16-37l0-313q0-21 16-36t37-15l573 0q21 0 37 15t16 36z" horiz-adv-x="990" />
<glyph glyph-name="bat1" unicode="&#xe8c3;" d="M209 194q-21 0-37 16t-16 37l0 209q0 21 16 36t37 15 36-15 15-36l0-209q0-21-15-37t-36-16z m676 313q44 0 74-31t31-73l0-104q0-44-31-74t-74-31q0-65-46-111t-111-46l-573 0q-65 0-111 46t-46 111l0 313q0 65 46 111t111 46l573 0q65 0 111-46t46-111z m-104-313l0 313q0 21-16 37t-37 16l-573 0q-21 0-37-16t-16-37l0-313q0-21 16-36t37-15l573 0q21 0 37 15t16 36z" horiz-adv-x="990" />
<glyph glyph-name="bat2" unicode="&#xe8c4;" d="M365 194q-21 0-37 16t-16 37l0 209q0 21 16 36t37 15 36-15 15-36l0-209q0-21-15-37t-36-16z m-156 0q-21 0-37 16t-16 37l0 209q0 21 16 36t37 15 36-15 15-36l0-209q0-21-15-37t-36-16z m676 313q44 0 74-31t31-73l0-104q0-44-31-74t-74-31q0-65-46-111t-111-46l-573 0q-65 0-111 46t-46 111l0 313q0 65 46 111t111 46l573 0q65 0 111-46t46-111z m-104-313l0 313q0 21-16 37t-37 16l-573 0q-21 0-37-16t-16-37l0-313q0-21 16-36t37-15l573 0q21 0 37 15t16 36z" horiz-adv-x="990" />
<glyph glyph-name="flask" unicode="&#xe908;" d="M782 126q19-68-21-117t-106-49l-521 0q-66 0-106 49t-21 117l129 475q3 10 6 35l-60 0q-21 0-36 16t-15 37 15 37 36 16l625 0q21 0 37-16t16-37-16-37-37-16l-61 0z m-246 510l-291 0q-1-35-10-61l-54-200 3 1 419 0q1 0 3-1t3-1z m119-573q35 0 26 35l-63 231q-9-6-16-6l-416 0q-9 0-18 6l-61-231q-9-35 26-35l521 0z" horiz-adv-x="788" />
<glyph glyph-name="beer" unicode="&#xe90b;" d="M260 115q0-10-8-18t-18-8-18 8-8 18l0 313q0 10 8 18t18 8 18-8 8-18l0-313z m105 0q0-10-8-18t-18-8-18 8-8 18l0 313q0 10 8 18t18 8 18-8 8-18l0-313z m104 0q0-10-8-18t-18-8-18 8-8 18l0 313q0 10 8 18t18 8 18-8 8-18l0-313z m234 548q75 0 129-54t54-129l0-260q0-75-54-129t-129-54l-25 0q0-65-46-111t-111-46l-365 0q-65 0-111 46t-46 111l0 678q0 43 30 73t74 31l469 0q44 0 74-31t31-73l0-53 25 0z m-599 53l0-79q0-31 23-54t56-23q45 0 68 40l9 16 19-4q18-3 34 7t23 27l6 18 231 0 0 53-469 0z m469-678l0 573-196 0q-31-51-90-51-40-53-104-53-45 0-79 26l0-495q0-21 16-37t37-16l365 0q21 0 36 16t15 37z m209 183l0 260q0 33-23 56t-56 23l-78 0 0-418 78 0q33 0 56 23t23 56z" horiz-adv-x="885" />
<glyph glyph-name="bell" unicode="&#xe85b;" d="M819 100q24-26 9-58t-47-31l-164 0q-18-69-74-113t-128-44-127 44-73 113l-164 0q-33 0-48 33t10 58q4 4 10 12t21 37 27 63 22 93 10 123q0 101 58 182t151 113q-1 6-1 18 0 43 30 73t74 31 74-31 31-73q0-5-3-18 93-33 151-113t59-182q0-65 10-123t22-93 27-63 21-37 10-13z m-403 536q-86 0-147-61t-61-147q0-61-5-105l426 0q-6 54-6 105 0 86-61 147t-146 61z m0-676q61 0 90 51l-179 0q29-51 89-51z m-270 156l541 0q-31 65-49 156l-444 0q-18-91-49-156z" horiz-adv-x="834" />
<glyph glyph-name="popup-1" unicode="&#xe899;" d="M781 793q44 0 74-31t30-73l0-521q0-44-30-74t-74-30l-104 0 0-53q0-43-31-73t-74-31l-469 0q-44 0-74 31t-30 73l0 469q0 44 31 74t73 31l53 0 0 104q0 43 31 73t73 31l521 0z m-678-781l469 0 0 443q0 10-8 18t-18 8l-444 0 0-469z m678 156l0 521-521 0 0-156 288 0q31 0 54-23t23-56l0-286 156 0z" horiz-adv-x="885" />
<glyph glyph-name="briefcase" unicode="&#xe8e9;" d="M781 610q65 0 111-46t46-111l0-364q0-65-46-111t-111-46l-625 0q-65 0-111 46t-46 111l0 364q0 65 46 111t111 46q0 65 46 111t111 46l313 0q65 0 111-46t46-111z m-469 53q-21 0-37-16t-16-37l418 0q0 21-16 37t-37 16l-313 0z m521-573l0 51-730 0 0-51q0-21 16-37t37-16l625 0q21 0 37 16t16 37z m-730 104l730 0 0 260q0 21-16 37t-37 16l-625 0q-21 0-37-16t-16-37l0-260z m418 156q21 0 36-16t15-37-15-36-36-15l-105 0q-21 0-36 15t-15 36 15 37 36 16l105 0z" horiz-adv-x="938" />
<glyph glyph-name="brush" unicode="&#xe8ea;" d="M909 790q49-49 24-113-135-339-488-548-16-10-29-13-16-104-94-171t-184-67q-24 0-46 4l-76 11-11 76q-20 126 55 223 68 86 180 104 5 18 10 28 209 353 548 488 19 8 39 8 44 0 74-30z m-771-805q71 0 121 44t58 113l-54 54q-78-9-123-69t-33-141q10-1 31-1z m255 234q38 21 93 61-84 84-85 86-35-49-61-94z m135 93q213 165 309 405-243-96-406-310z" horiz-adv-x="941" />
<glyph glyph-name="vcard" unicode="&#xe861;" d="M990-66l-834 0q-65 0-111 46t-46 111l0 520q0 65 46 111t111 46l834 0q65 0 111-46t46-111l0-520q0-65-46-111t-111-46z m-834 729q-21 0-37-16t-16-37l0-520q0-21 16-37t37-16l834 0q21 0 36 16t15 37l0 520q0 21-15 37t-36 16l-834 0z m313-469l-209 0q-21 0-36 16t-15 37 15 36 36 15l209 0q21 0 37-15t16-36-16-37-37-16z m0 209l-209 0q-21 0-36 15t-15 36 15 37 36 16l209 0q21 0 37-16t16-37-16-36-37-15z m209 25q0 105 104 105t104-105q0-104-104-104t-104 104z m104-148q56 0 93-23t37-53q0-15-38-26t-93-11q-59 0-94 11t-36 26q0 30 36 53t94 23z" horiz-adv-x="1146" />
<glyph glyph-name="calculator" unicode="&#xe911;" d="M573-119l-416 0q-65 0-111 46t-46 111l0 625q0 65 46 111t111 46l416 0q65 0 111-46t46-111l0-625q0-65-46-111t-111-46z m-416 834q-21 0-37-16t-16-37l0-625q0-21 16-37t37-16l416 0q21 0 37 16t16 37l0 625q0 21-16 37t-37 16l-416 0z m0-313q0 51 53 51 51 0 51-51 0-53-51-53-53 0-53 53z m156 0q0 51 53 51 51 0 51-51 0-53-51-53-53 0-53 53z m156 0q0 51 53 51 51 0 51-51 0-53-51-53-53 0-53 53z m-313-156q0 51 53 51 51 0 51-51 0-53-51-53-53 0-53 53z m156 0q0 51 53 51 51 0 51-51 0-53-51-53-53 0-53 53z m156 0q0 51 53 51 51 0 51-51 0-53-51-53-53 0-53 53z m-313-156q0 51 53 51 51 0 51-51 0-53-51-53-53 0-53 53z m156 0q0 51 53 51 51 0 51-51 0-53-51-53-53 0-53 53z m156 0q0 51 53 51 51 0 51-51 0-53-51-53-53 0-53 53z m53 520l-313 0 0-51 313 0 0 51z m51 53l0-156-416 0 0 156 416 0z" horiz-adv-x="729" />
<glyph glyph-name="calendar-outlilne" unicode="&#xe87f;" d="M834 653q46-16 75-56t29-90l0-469q0-65-46-111t-111-46l-625 0q-65 0-111 46t-46 111l0 469q0 50 29 90t75 56l0 10q0 65 46 111t111 46 111-46 46-111l105 0q0 65 46 111t111 46 111-46 46-111l0-10z m-209 10l0-104q0-21 16-37t37-16 36 16 15 37l0 104q0 21-15 37t-36 16-37-16-16-37z m-416 0l0-104q0-21 15-37t36-16 37 16 16 37l0 104q0 21-16 37t-37 16-36-16-15-37z m625-625l0 313-730 0 0-313q0-21 16-37t37-16l625 0q21 0 37 16t16 37z m0 365l0 104q0 21-16 37t-37 16q0-44-31-74t-73-31-74 31-31 74l-208 0q0-44-31-74t-74-31-73 31-31 74q-21 0-37-16t-16-37l0-104 730 0z" horiz-adv-x="938" />
<glyph glyph-name="calendar" unicode="&#xe880;" d="M834 653q46-16 75-56t29-90l0-469q0-65-46-111t-111-46l-625 0q-65 0-111 46t-46 111l0 469q0 50 29 90t75 56l0 10q0 65 46 111t111 46 111-46 46-111l105 0q0 65 46 111t111 46 111-46 46-111l0-10z m-209 10l0-104q0-21 16-37t37-16 36 16 15 37l0 104q0 21-15 37t-36 16-37-16-16-37z m-416 0l0-104q0-21 15-37t36-16 37 16 16 37l0 104q0 21-16 37t-37 16-36-16-15-37z m625-625l0 313-730 0 0-313q0-21 16-37t37-16l625 0q21 0 37 16t16 37z" horiz-adv-x="938" />
<glyph glyph-name="camera-outline" unicode="&#xe816;" d="M885-66l-729 0q-65 0-111 46t-46 111l0 416q0 65 46 111t111 46l83 0 53 53q23 23 58 37t68 14l209 0q33 0 68-14t58-37l51-53 83 0q65 0 111-46t46-111l0-416q0-65-46-111t-111-46z m-729 625q-21 0-37-16t-16-37l0-416q0-21 16-37t37-16l729 0q21 0 37 16t16 37l0 416q0 21-16 37t-37 16l-104 0q-21 0-36 15l-68 68q-21 21-53 21l-209 0q-30 0-51-21l-68-68q-15-15-38-15l-104 0z m365-105q-54 0-93-38t-39-92 39-92 93-38 92 38 38 92-38 92-92 38z m0 53q76 0 129-53t53-129q0-75-53-129t-128-54q-76 0-129 54t-53 129q0 76 53 129t129 53z m313 16q28 0 48-20t20-49-19-48-48-19-49 20-20 48q0 29 20 49t49 20z" horiz-adv-x="1041" />
<glyph glyph-name="camera" unicode="&#xe817;" d="M885 663q65 0 111-46t46-111l0-416q0-65-46-111t-111-46l-729 0q-65 0-111 46t-46 111l0 416q0 65 46 111t111 46l83 0 53 53q23 23 58 37t68 14l209 0q33 0 68-14t58-37l51-53 83 0z m-364-521q75 0 128 54t53 129q0 76-53 129t-129 53-129-53-53-129q0-75 53-129t129-54z m313 245q29 0 48 19t19 48-20 49-48 20q-29 0-49-20t-20-49q0-28 20-48t49-20z" horiz-adv-x="1041" />
<glyph glyph-name="block-outline" unicode="&#xe88c;" d="M443-93q-183 0-313 130t-130 313 130 313 313 130 313-130 130-313-130-313-313-130z m0 781q-140 0-239-99t-99-239 99-239 239-99 239 99 99 239-99 239-239 99z m0-156q-21 0-31-3l211-213q3 10 3 33 0 75-54 129t-129 54z m0 53q96 0 166-69t69-166q0-65-36-124l-323 321q60 38 124 38z m-179-203q-4-15-4-33 0-75 54-129t129-54q23 0 33 3z m-19 93l323-323q-60-38-125-38-98 0-166 69t-68 166q0 66 36 125z" horiz-adv-x="885" />
<glyph glyph-name="chart-alt-outline" unicode="&#xe8f4;" d="M781 819q65 0 111-47t46-109l0-521q0-21-16-36t-37-15l-833 0q-21 0-37 15t-16 36l0 156q0 56 34 98l209 261q39 48 103 56t113-28l86-66 115 143q48 59 121 59z m53-156q0 20-16 36t-36 16q-25 0-41-20l-145-181q-14-18-34-20t-38 10l-128 96q-16 13-38 10t-34-19l-209-261q-11-14-11-33l0-104 730 0 0 469z m51-781l-833 0q-21 0-37 16t-16 37 16 36 37 15l833 0q21 0 37-15t16-36-16-37-37-16z" horiz-adv-x="938" />
<glyph glyph-name="chart-alt" unicode="&#xe8f5;" d="M885 688l0-521-833 0 0 156q0 38 23 65l209 261q26 33 68 38t76-20l128-95 145 181q28 34 70 39t76-23q39-30 39-81z m0-678q21 0 37-15t16-36-16-37-37-16l-833 0q-21 0-37 16t-16 37 16 36 37 15l833 0z" horiz-adv-x="938" />
<glyph glyph-name="chart-bar-outline" unicode="&#xe8f6;" d="M678 663q65 0 111-46t46-111l0-469-834 0 0 313q0 65 46 111t111 46q59 0 104-41l0 249q0 65 46 111t111 46 111-46 46-111l0-93q45 41 105 41z m-261 104q-21 0-36-16t-15-37l0-573 104 0 0 573q0 21-16 37t-37 16z m-208-625l0 209q0 21-16 36t-37 15-37-15-16-36l0-209 105 0z m520 0l0 365q0 21-15 36t-36 15-37-15-16-36l0-365 104 0z m53-313l-729 0q-21 0-37 16t-16 37 16 36 37 15l729 0q21 0 37-15t16-36-16-37-37-16z" horiz-adv-x="834" />
<glyph glyph-name="chart-outline" unicode="&#xe8f2;" d="M156 116q-46 0-84 26t-56 63-15 83 33 83l209 260q39 48 103 56t113-29l86-65 114 141q48 59 123 59 63 0 108-43t49-99-34-111l-209-260q-39-48-103-56t-114 28l-88 65-114-141q-48-59-121-59z m209 469q-25 0-41-20l-209-260q-20-28-4-56t46-29q25 0 41 20l176 221 168-126q16-13 38-10t34 19l209 260q20 28 4 56t-46 29q-25 0-41-20l-176-220-168 125q-13 11-31 11z m469-678l-730 0q-21 0-36 16t-15 37 15 36 36 15l730 0q21 0 36-15t15-36-15-37-36-16z" horiz-adv-x="938" />
<glyph glyph-name="chart-pie-outline" unicode="&#xe8f8;" d="M330 779q0 43 31 73t73 31l10 0q218-19 389-161 34-29 37-74t-29-79l-30-29q93-135 93-298 0-184-115-328-33-39-81-39-24 0-46 11-108-70-231-70-178 0-303 126t-126 304q0 149 93 266t237 151l0 116z m99-859q106 0 194 65l-240 248 0 334q-119-18-199-108t-80-212q0-135 96-231t229-96z m5 389l331 333q-145 121-331 138l0-470z m11-66l261-264q93 116 93 263 0 148-93 264z" horiz-adv-x="903" />
<glyph glyph-name="chart-pie" unicode="&#xe8f9;" d="M449 251l293 293q103-129 103-294 0-136-73-250-11-18-32-19t-36 13z m-136-23l270-271q-96-73-218-73-151 0-258 108t-107 259q0 138 90 240t223 121l0-384z m381 426l-278-279 0 394q0 21 16 35t37 10q123-23 221-91 18-13 18-33t-14-36z" horiz-adv-x="844" />
<glyph glyph-name="left-open-outline" unicode="&#xe89a;" d="M638 91q0-64-46-110t-110-46q-65 0-110 45l-371 371 371 371q44 44 111 44t111-44q45-45 45-111 0-65-45-110l-150-150 150-150q45-45 45-110z m-490 260l298-298q15-15 37-15t37 15 15 38q0 21-15 36l-224 224 224 224q15 15 15 36 0 23-15 38t-37 15-37-15z" horiz-adv-x="638" />
<glyph glyph-name="left-open" unicode="&#xe89b;" d="M481 684q31-31 31-74t-31-74l-186-186 186-186q31-31 31-74t-31-74-74-31-74 31l-334 334 334 334q30 31 74 31t74-31z" horiz-adv-x="513" />
<glyph glyph-name="right-open-outline" unicode="&#xe89c;" d="M156-66q-64 0-110 46t-46 110 46 110l150 150-150 150q-46 46-46 110 0 65 46 111 44 44 110 44t110-44l371-371-371-371q-45-45-110-45z m0 729q-21 0-37-16t-16-37q0-20 16-36l223-224-223-224q-16-16-16-36 0-21 16-38 15-15 36-15t36 15l298 298-298 298q-15 15-36 15z" horiz-adv-x="638" />
<glyph glyph-name="right-open" unicode="&#xe89d;" d="M31 684q30 31 74 31t74-31l335-334-335-334q-31-31-74-31t-74 31-31 74 31 74l188 186-188 186q-31 31-31 74t31 74z" horiz-adv-x="514" />
<glyph glyph-name="clipboard" unicode="&#xe8fc;" d="M678 819q65 0 111-46t46-111l0-625q0-65-46-111t-111-46l-521 0q-65 0-111 46t-46 111l0 625q0 65 46 111t111 46l521 0z m-418-104l0-53q0-21 16-37t37-16l209 0q21 0 36 16t15 37l0 53-313 0z m469-678l0 625q0 21-15 37t-36 16l-53 0 0-53q0-43-30-73t-74-31l-209 0q-43 0-73 31t-31 73l0 53-53 0q-21 0-37-16t-16-37l0-625q0-21 16-37t37-16l521 0q21 0 36 16t15 37z m-104 53l-416 0q-26 0-26 25 0 11 8 19t19 8l416 0q11 0 19-8t8-19q0-25-26-25z m0 156l-416 0q-11 0-19 8t-8 19q0 25 26 25l416 0q26 0 26-25 0-11-8-19t-19-8z m0 156l-416 0q-26 0-26 25 0 11 8 19t19 8l416 0q11 0 19-8t8-19q0-25-26-25z" horiz-adv-x="834" />
<glyph glyph-name="upload-cloud" unicode="&#xe84a;" d="M781 506q108 0 184-76t76-184-76-184-184-77l-209 0 0 239 68-66q16-16 38-16 20 0 36 16 15 15 15 36t-15 36l-156 156q-14 14-36 14t-38-14l-156-156q-15-15-15-36t15-36q16-16 38-16 20 0 36 16l68 66 0-239-260 0q-86 0-148 61t-61 148q0 73 44 128t113 73l0 8q0 130 92 221t221 91q100 0 181-58t113-152q3 0 9 1t10 1z" horiz-adv-x="1041" />
<glyph glyph-name="code-outline" unicode="&#xe84f;" d="M378 38q-65 0-111 46l-266 266 266 268q44 44 111 44t111-44q46-46 46-111t-46-111l-45-46 45-45q46-46 46-111t-46-111-110-46z m-230 313l193-193q15-15 37-15t37 15 15 37-15 37l-119 119 119 120q15 15 15 37t-15 37-37 15-37-15z m664-313q-64 0-110 46t-46 111 46 111l46 45-46 46q-46 46-46 111t46 111q44 44 111 44t111-44l266-268-266-266q-46-46-111-46z m0 521q-21 0-36-15t-15-37 15-37l119-120-119-119q-15-15-15-37t15-37 37-15 37 15l193 193-193 194q-15 15-38 15z" horiz-adv-x="1189" />
<glyph glyph-name="code" unicode="&#xe850;" d="M304 89q-44 0-74 30l-230 230 230 230q31 31 74 31t73-31q31-31 31-74t-31-74l-83-83 83-83q31-31 31-74t-31-74q-30-30-74-30z m399 0q-44 0-74 30-31 31-31 74t31 74l83 83-83 83q-31 31-31 74t31 74q30 31 73 31t74-31l230-230-230-230q-30-30-74-30z" horiz-adv-x="1006" />
<glyph glyph-name="coffee" unicode="&#xe90a;" d="M678-15l-625 0q-21 0-37 16t-16 37 16 37 37 16l625 0q21 0 36-16t15-37-15-37-36-16z m25 730q75 0 129-54t54-129-54-129-129-54l-25 0 0-104q0-44-31-74t-74-31l-416 0q-43 0-73 31t-31 74l0 469 650 0z m-130-469l0 364-416 0 0-364 416 0z m130 208q33 0 56 23t23 56q0 31-23 54t-56 23l-78 0 0-156 78 0z" horiz-adv-x="885" />
<glyph glyph-name="cog-outline" unicode="&#xe87a;" d="M560 741l-156 0-45-179-176 51-79-136 133-128-133-128 79-135 176 50 45-178 156 0 44 178 178-50 78 135-133 128 133 128-78 136-178-51z m0 104q35 0 63-22t37-57l19-74 74 21q15 4 29 4 60 0 90-53l78-135q18-31 13-66t-31-60l-55-54 55-53q25-25 30-60t-13-66l-78-136q-30-51-90-51-14 0-29 4l-74 20-18-74q-9-35-37-57t-64-22l-156 0q-36 0-64 22t-37 57l-19 74-73-21q-15-4-29-4-60 0-90 53l-79 135q-18 31-13 67t31 61l55 53-55 53q-25 25-30 61t13 67l79 135q30 53 90 53 14 0 29-4l73-21 19 74q9 35 37 57t64 22l156 0z m-79-391q-44 0-74-30t-30-74 30-74 74-30 74 31 31 73-31 73-74 31z m0 53q65 0 111-46t46-111-46-111-111-46-111 46-46 111 46 111 111 46z" horiz-adv-x="963" />
<glyph glyph-name="compass" unicode="&#xe868;" d="M469 715q-151 0-258-107t-107-258 107-258 258-107 258 107 107 258-107 258-258 107z m0 104q194 0 331-138t138-331-138-331-331-138-331 138-138 331 138 331 331 138z m193-244q14 4 25-8t8-25l-90-310q-4-14-18-18l-310-90-6 0q-13 0-21 10t-5 23l90 310q4 14 18 18z m-354-386l251 71-180 180z" horiz-adv-x="938" />
<glyph glyph-name="contacts" unicode="&#xe860;" d="M834 819q65 0 111-46t46-111l0-625q0-65-46-111t-111-46l-574 0q-65 0-111 46t-46 111l0 53-51 0q-21 0-37 15t-16 36 16 37 37 16l51 0 0 104-51 0q-21 0-37 16t-16 37 16 37 37 16l51 0 0 104-51 0q-21 0-37 16t-16 37 16 36 37 15l51 0 0 53q0 65 46 111t111 46l574 0z m-625-156l0-53 51 0 0 105q-21 0-36-16t-15-37z m0-156l0-104 51 0 0 104-51 0z m0-209l0-104 51 0 0 104-51 0z m0-260q0-21 15-37t36-16l0 105-51 0 0-53z m676 0l0 625q0 21-15 37t-36 16l-521 0 0-730 521 0q21 0 36 16t15 37z m-416 390q0 105 104 105 105 0 105-105 0-104-105-104-104 0-104 104z m104-148q56 0 93-23t37-53q0-15-38-26t-93-11q-59 0-94 11t-36 26q0 30 36 53t94 23z" horiz-adv-x="990" />
<glyph glyph-name="credit-card" unicode="&#xe8fb;" d="M729 688q65 0 111-46t46-111l0-364q0-65-46-111t-111-46l-573 0q-65 0-111 46t-46 111l0 364q0 65 46 111t111 46l573 0z m53-520l0 208-678 0 0-208q0-21 16-37t37-16l573 0q21 0 37 16t16 37z m0 313l0 51q0 21-16 37t-37 16l-573 0q-21 0-37-16t-16-37l0-51 678 0z m-209-261q-25 0-25 26t25 26l105 0q25 0 25-26t-25-26l-105 0z" horiz-adv-x="885" />
<glyph glyph-name="upload-cloud-outline" unicode="&#xe849;" d="M794 506q108 0 184-76t77-184-77-184-184-77l-573 0q-88 0-154 62t-67 147q0 66 48 123t96 79l0 8q0 129 98 221t228 92q103 0 189-59t118-151q4 0 9 1t9 1z m0-416q65 0 111 46t46 111-45 111-110 46q-18 0-43-8l-56-15-10 56q-14 75-71 124t-134 49q-86 0-147-61t-61-147q0-23 4-43l13-63-74 1q-40 0-69-31t-29-74q0-44 30-74t74-30l286 0 0 198-111-113q-8-8-19-8-16 0-24 16t5 29l156 156q6 6 18 7t19-7l156-156q13-13 5-29t-24-16q-11 0-19 8l-111 113 0-198 234 0z" horiz-adv-x="1055" />
<glyph glyph-name="database" unicode="&#xe8fd;" d="M729 524l0-330q0-151-106-258t-258-107-258 107-107 258l0 328 1 3q6 145 112 246t252 101 252-101 112-246z m-364-460q85 0 156 46t104 121l0 20q-108-110-260-110-154 0-261 110l0-20q34-75 105-121t156-46z m0 703q-108 0-184-76t-77-184 77-184 184-77 184 77 76 184-76 184-184 76z m0-834q88 0 156 53t93 136q-101-110-249-110t-249 110q24-83 93-136t156-53z" horiz-adv-x="729" />
<glyph glyph-name="cancel-circled-outline" unicode="&#xe824;" d="M469 819q194 0 331-138t138-331-138-331-331-138-331 138-138 331 138 331 331 138z m0-834q151 0 258 107t107 258-107 258-258 107-258-107-107-258 107-258 258-107z m36 365l139-138q13-13 5-29t-24-16q-11 0-19 8l-138 139-138-139q-8-8-19-8-16 0-24 16t5 29l139 138-139 138q-18 18 1 36t36 1l138-139 138 139q18 18 36-1t1-36z" horiz-adv-x="938" />
<glyph glyph-name="cancel-circled" unicode="&#xe825;" d="M416 767q173 0 295-122t123-294-123-294-295-122-294 122-122 294 122 294 294 122z m194-536l-120 120 120 120q15 15 15 36t-15 36-37 15-37-15l-120-119-119 119q-15 15-37 15t-37-15-15-36 15-36l119-120-119-120q-15-15-15-36t15-36q16-16 36-16 21 0 38 16l119 119 120-119q16-16 36-16 21 0 38 16 15 15 15 36t-15 36z" horiz-adv-x="834" />
<glyph glyph-name="desktop" unicode="&#xe8cd;" d="M1094 897q65 0 111-46t46-111l0-573q0-65-46-111t-111-46l-313 0 0-104 156 0q21 0 37-16t16-37-16-37-37-16l-625 0q-21 0-37 16t-16 37 16 37 37 16l156 0 0 104-313 0q-65 0-111 46t-46 111l0 573q0 65 46 111t111 46l938 0z m-365-989l0 104-208 0 0-104 208 0z m418 260l0 573q0 21-16 37t-37 16l-938 0q-21 0-37-16t-16-37l0-573q0-21 16-37t37-16l938 0q21 0 37 16t16 37z m-105 573q21 0 37-15t16-36l0-418q0-21-16-36t-37-15l-833 0q-21 0-37 15t-16 36l0 418q0 21 16 36t37 15l833 0z m0-469l0 418-833 0 0-418 833 0z" horiz-adv-x="1250" />
<glyph glyph-name="laptop" unicode="&#xe8ce;" d="M1145 139q45-10 75-46t30-82q0-54-38-92t-92-38l-990 0q-54 0-92 38t-38 92q0 46 30 82t75 46q0 8-1 26t-1 29l0 469q0 65 46 111t111 46l730 0q65 0 111-46t46-111l0-469q0-10-1-29t-1-26z m-936 524l0-469q0-11 1-29t1-24l50 0 0 469q0 21 16 37t37 16l625 0q21 0 37-16t16-37l0-469 51 0 0 521q0 21-15 37t-36 16l-730 0q-21 0-36-16t-15-37z m729-521l0 469-625 0 0-469 625 0z m183-156q10 0 18 8t8 18-8 18-18 8l-990 0q-10 0-18-8t-8-18 8-18 18-8l990 0z" horiz-adv-x="1250" />
<glyph glyph-name="tablet" unicode="&#xe8cf;" d="M678 741q21 0 36-15t15-36l0-625q0-21-15-37t-36-16l-183 0q0-21-16-37t-37-16-37 16-16 37l-181 0q-21 0-37 16t-16 37l0 625q0 21 16 36t37 15l469 0z m0-676l0 625-469 0 0-625 469 0z m51 833q65 0 111-46t46-111l0-781q0-65-46-111t-111-46l-573 0q-65 0-111 46t-46 111l0 781q0 65 46 111t111 46l573 0z m53-938l0 781q0 21-16 37t-37 16l-573 0q-21 0-37-16t-16-37l0-781q0-21 16-36t37-15l573 0q21 0 37 15t16 36z" horiz-adv-x="885" />
<glyph glyph-name="address" unicode="&#xe862;" d="M933 533l-143-135-4-4q48-54 48-121 0-75-54-129t-129-54l-141 0-41-209-53 0-41 209-115 0q-69 0-118 49l-134 134 96 96q-48 21-76 66t-29 98q0 75 54 129t129 54l183 0 0 26q0 31 23 54t55 23 56-23 23-54l0-26 151 0q68 0 116-46z m-281-339q31 0 54 23t23 56-23 55-54 23l-391 0q-26 0-44-18l-60-60 60-60q19-19 44-19l391 0z m66 279l64 60-64 60q-19 19-45 19l-490 0q-33 0-56-23t-23-56q0-31 23-54t56-23l490 0q28 0 45 18z" horiz-adv-x="933" />
<glyph glyph-name="divide-outline" unicode="&#xe82a;" d="M469 533q-65 0-111 46t-46 111 46 111 111 46 111-46 46-111-46-111-111-46z m0 208q-21 0-37-15t-16-36 16-37 37-16 37 16 16 37-16 36-37 15z m0-885q-65 0-111 46t-46 111 46 111 111 46 111-46 46-111-46-111-111-46z m0 209q-21 0-37-16t-16-37 16-36 37-15 37 15 16 36-16 37-37 16z m313 130l-625 0q-65 0-111 46t-46 111 46 111 111 46l625 0q65 0 111-46t46-111-46-111-111-46z m-625 209q-21 0-37-16t-16-37 16-37 37-16l625 0q21 0 37 16t16 37-16 37-37 16l-625 0z" horiz-adv-x="938" />
<glyph glyph-name="divide" unicode="&#xe82b;" d="M300 663q0 118 116 118 118 0 118-118t-118-118q-116 0-116 118z m0-625q0 118 116 118 118 0 118-118t-118-118q-116 0-116 118z m-300 313q0 43 30 73t74 31l625 0q44 0 74-31t31-73-31-73-74-31l-625 0q-44 0-74 31t-30 73z" horiz-adv-x="834" />
<glyph glyph-name="doc-add" unicode="&#xe86c;" d="M573 350q21 0 37-16t16-37-16-36-37-15l-104 0 0-105q0-21-16-36t-37-15-36 15-15 36l0 105-105 0q-21 0-36 15t-15 36 15 37 36 16l105 0 0 104q0 21 15 37t36 16 37-16 16-37l0-104 104 0z m245 245q16-16 16-36l0-521q0-65-46-111t-111-46l-521 0q-65 0-111 46t-46 111l0 625q0 65 46 111t111 46l416 0q23 0 38-15z m-110-36l-135 134 0-56q0-31 23-54t56-23l56 0z m-30-574q21 0 36 16t15 37l0 469-78 0q-54 0-92 38t-38 92l0 79-365 0q-21 0-37-16t-16-37l0-625q0-21 16-37t37-16l521 0z" horiz-adv-x="834" />
<glyph glyph-name="doc-remove" unicode="&#xe86d;" d="M818 595q16-16 16-36l0-521q0-65-46-111t-111-46l-521 0q-65 0-111 46t-46 111l0 625q0 65 46 111t111 46l416 0q23 0 38-15z m-110-36l-135 134 0-56q0-31 23-54t56-23l56 0z m-30-574q21 0 36 16t15 37l0 469-78 0q-54 0-92 38t-38 92l0 79-365 0q-21 0-37-16t-16-37l0-625q0-21 16-37t37-16l521 0z m-105 261l-313 0q-21 0-36 15t-15 36 15 37 36 16l313 0q21 0 37-16t16-37-16-36-37-15z" horiz-adv-x="834" />
<glyph glyph-name="doc-text" unicode="&#xe86b;" d="M678-119l-521 0q-65 0-111 46t-46 111l0 625q0 65 46 111t111 46l521 0q65 0 111-46t46-111l0-625q0-65-46-111t-111-46z m-521 834q-21 0-37-16t-16-37l0-625q0-21 16-37t37-16l521 0q21 0 36 16t15 37l0 625q0 21-15 37t-36 16l-521 0z m469-313l-416 0q-26 0-26 25 0 11 8 19t19 8l416 0q11 0 19-8t8-19q0-25-26-25z m0 156l-416 0q-11 0-19 8t-8 19q0 25 26 25l416 0q26 0 26-25 0-11-8-19t-19-8z m0-313l-416 0q-11 0-19 8t-8 19q0 25 26 25l416 0q26 0 26-25 0-11-8-19t-19-8z m0-156l-416 0q-26 0-26 25 0 11 8 19t19 8l416 0q11 0 19-8t8-19q0-25-26-25z" horiz-adv-x="834" />
<glyph glyph-name="doc" unicode="&#xe86a;" d="M818 595q16-16 16-36l0-521q0-65-46-111t-111-46l-521 0q-65 0-111 46t-46 111l0 625q0 65 46 111t111 46l416 0q23 0 38-15z m-110-36l-135 134 0-56q0-31 23-54t56-23l56 0z m-30-574q21 0 36 16t15 37l0 469-78 0q-54 0-92 38t-38 92l0 79-365 0q-21 0-37-16t-16-37l0-625q0-21 16-37t37-16l521 0z" horiz-adv-x="834" />
<glyph glyph-name="download-outline" unicode="&#xe845;" d="M936 64l1-261q0-21-16-36t-37-15l-833 0q-21 0-37 15t-16 36q0 261 1 261 0 11 1 16l105 313q13 35 49 35l29 0-35 36q-46 46-46 110t46 110q31 31 76 41t86-4l0 71q0 65 46 111t111 46 111-46 46-111l0-71q41 14 86 4t76-41q46-46 46-110t-46-110l-35-36 29 0q36 0 49-35l105-313q1-5 1-16z m-713 546q-15-15-15-37t15-37l245-244 245 245q15 15 15 36t-15 36-37 15-37-15l-119-119 0 301q0 21-16 37t-37 16-37-16-16-37l0-301-119 119q-16 16-38 16-20 0-36-16z m-30-286l-86-260 724 0-88 260-96 0-179-178-179 178-96 0z m640-469l0 156-730 0 0-156 730 0z" horiz-adv-x="938" />
<glyph glyph-name="edit" unicode="&#xe856;" d="M966 671q24-24 24-55t-24-55l-185-185 0-469q0-21-16-37t-37-16l-676 0q-21 0-37 16t-16 37l0 676q0 21 16 37t37 16l469 0 185 185q24 24 55 24t55-24z m-524-486l328 328-113 113-328-328z m-134 69l4-86 89-4z m369-295l0 313-166-160q-20-20-63-34t-81-14l-159 0 0 159q0 41 11 83t31 61l165 166-313 0 0-574 574 0z m130 590l68 68-114 114-68-68z" horiz-adv-x="990" />
<glyph glyph-name="eject-outline" unicode="&#xe8bf;" d="M625 608q114-34 186-127t72-216q0-150-108-254t-261-104q-123 0-221 74t-133 188l-56 0q-44 0-74 30t-30 74l0 521 521 0q43 0 73-31t31-74l0-80z m-416-98l250-250q15-15 36-15 23 0 38 15t15 37-15 37l-250 250 169 0q21 0 36 16t15 37-15 36-36 15l-348 0 0-346q0-21 16-37t37-16 37 16 16 37l0 169z m313-501q108 0 184 76t76 183-76 183-184 75q-38 0-86-20l134-134q31-31 31-74t-31-73q-31-31-74-31t-74 31l-150 150q-11-31-11-104 0-108 77-184t184-77z" horiz-adv-x="883" />
<glyph glyph-name="eject" unicode="&#xe8c0;" d="M469 51q96 0 165 69t69 165-69 166-165 69q-21 0-37 16t-16 37 16 36 37 15q140 0 239-99t99-239-99-239-239-99-239 99-99 239q0 21 16 37t37 16 37-16 16-37q0-96 69-165t165-69z m-123 703q21 0 37-15t16-36-16-37-37-16l-169 0 303-303q15-15 15-37t-15-37-38-15q-21 0-36 15l-303 303 0-169q0-21-15-37t-36-16-37 16-16 37l0 346 346 0z" horiz-adv-x="808" />
<glyph glyph-name="eq-outline" unicode="&#xe82c;" d="M781 377l-625 0q-65 0-111 46t-46 111 46 111 111 46l625 0q65 0 111-46t46-111-46-111-111-46z m-625 209q-21 0-37-16t-16-37 16-37 37-16l625 0q21 0 37 16t16 37-16 37-37 16l-625 0z m625-574l-625 0q-65 0-111 46t-46 111 46 111 111 46l625 0q65 0 111-46t46-111-46-111-111-46z m-625 209q-21 0-37-16t-16-37 16-36 37-15l625 0q21 0 37 15t16 36-16 37-37 16l-625 0z" horiz-adv-x="938" />
<glyph glyph-name="eq" unicode="&#xe82d;" d="M729 637q44 0 74-31t31-73-31-73-74-31l-625 0q-44 0-74 30t-30 74 30 74 74 30l625 0z m0-364q44 0 74-31t31-74q0-43-31-73t-74-31l-625 0q-44 0-74 30t-30 74 31 74 73 31l625 0z" horiz-adv-x="834" />
<glyph glyph-name="export-outline" unicode="&#xe851;" d="M975 465q15-15 15-37t-15-37q-66-66-141-143l0-315q0-21-16-37t-37-16l-729 0q-21 0-37 16t-16 37l0 729q0 21 16 37t37 16l416 0q0 43 33 73t79 31 83-34q120-128 313-320z m-388-320q256 263 276 283-176 179-275 285-4 3-9 3t-8-3l0-206-51 0q-48 0-86-16t-65-41-46-61-31-69-19-71q113 101 248 103l51 0 0-206q3-3 8-3 4 0 8 4z m-484-160l625 0 0 231q-61-61-103-106-18-20-46-20-25 0-42 15t-17 36l0 156q-179-4-313-208l0 25q0 60 9 119t32 119 57 105 89 73 126 28l0 51-418 0 0-625z" horiz-adv-x="990" />
<glyph glyph-name="export" unicode="&#xe852;" d="M209 141q0 60 9 119t32 119 57 105 89 73 126 28l0 156q0 21 17 36t42 15q28 0 46-19l311-320q-210-211-311-318-18-20-46-20-25 0-42 15t-17 36l0 156q-179-4-313-208l0 25z m-156-234q-21 0-37 16t-16 37l0 729q0 21 16 37t37 16l416 0 0-105-365 0 0-625 625 0 0 156q65 68 105 108l0-315q0-21-16-37t-37-16l-729 0z" horiz-adv-x="938" />
<glyph glyph-name="eye-outline" unicode="&#xe83c;" d="M469 559q-98 0-171-53-78-55-165-156 85-99 165-155 74-53 171-53t171 53q80 56 165 155-88 101-165 156-74 53-171 53z m0 104q133 0 231-71 60-43 119-103t88-99l30-39q-11-16-32-43t-83-91-123-107q-99-71-231-71-134 0-233 71-60 43-119 103t-88 99l-29 39q11 16 32 43t83 91 122 107q99 71 233 71z m0-260q21 0 37-16t16-37-16-36-37-15-37 15-16 36 16 37 37 16z m0-209q-65 0-111 46t-46 111 46 111 111 46 111-46 46-111-46-111-111-46z m0 261q-43 0-73-31t-31-74q0-43 30-73t74-31 74 31 30 73q0 44-31 74t-73 31z" horiz-adv-x="938" />
<glyph glyph-name="eye" unicode="&#xe83d;" d="M1034 380q21-29 0-59-8-11-34-46t-89-99-126-109q-113-80-261-80-150 0-263 80-64 45-126 109t-89 99-34 46q-21 29 0 59 6 11 34 46t90 99 126 109q114 81 263 81 148 0 261-81 64-45 126-109t90-99 34-46z m-511-213q75 0 128 54t53 129q0 76-53 129t-128 53q-76 0-129-53t-53-129q0-75 53-129t129-54z m104 183q0-43-30-73t-74-31-74 31-31 73 31 74 74 31q43 0 73-31t31-74z" horiz-adv-x="1045" />
<glyph glyph-name="feather" unicode="&#xe855;" d="M453 922q189-35 311-182t122-338q0-180-109-322t-281-188l0-64q0-21-16-36t-37-15-37 15-16 36l0 64q-173 46-281 188t-109 322q0 191 123 338t311 182l9 1z m43-921q125 44 204 150t83 240l-164-164q-8-8-19-8-16 0-24 15t5 29l196 196q-11 76-45 141l-114-114q-8-8-19-8-16 0-24 16t5 29l123 123q-96 136-260 170-164-34-260-170l123-123q13-13 5-29t-24-16q-11 0-19 8l-114 114q-34-65-45-141l196-196q13-14 5-29t-24-15q-11 0-19 8l-163 164q4-134 82-240t203-150l0 609q0 21 16 37t37 16 37-16 16-37l0-609z" horiz-adv-x="885" />
<glyph glyph-name="video" unicode="&#xe811;" d="M209 533l416 0 0-365-416 0 0 365z m364-313l0 260-313 0 0-260 313 0z m105 625q65 0 111-46t46-111l0-678q0-65-46-111t-111-46l-156 0 0 104-209 0 0-104-156 0q-65 0-111 46t-46 111l0 678q0 65 46 111t111 46l156 0 0-105 209 0 0 105 156 0z m51-209l0 53q0 21-15 36t-36 15l-53 0 0-104-416 0 0 104-53 0q-21 0-37-15t-16-36l0-53q21 0 37-16t16-37-16-36-37-15l0-53q21 0 37-16t16-37-16-36-37-15l0-53q21 0 37-16t16-37-16-36-37-15l0-53q21 0 37-16t16-37-16-36-37-15l0-53q0-21 16-37t37-16l53 0 0 105 416 0 0-105 53 0q21 0 36 16t15 37l0 53q-21 0-36 15t-15 36 15 37 36 16l0 53q-21 0-36 15t-15 36 15 37 36 16l0 53q-21 0-36 15t-15 36 15 37 36 16l0 53q-21 0-36 15t-15 36 15 37 36 16z" horiz-adv-x="834" />
<glyph glyph-name="flag" unicode="&#xe841;" d="M640 693q25 25 57 11t32-47l0-418q0-21-15-36-80-80-193-80t-193 80q-46 46-110 50t-114-36l0-238q0-21-15-37t-36-16-37 16-16 37l0 678q0 21 15 36 80 80 193 80t193-80q50-50 119-50t119 50z m-313-74q-46 46-110 50t-114-36l0-119q68 33 146 20t133-68q49-49 118-56t125 29l0 121q-73-31-156-16t-142 74z m74-343q46-46 110-50t114 36l0 119q-54-25-104-25-100 0-175 73-49 49-118 56t-125-29l0-120q53 21 105 21 113 0 193-80z" horiz-adv-x="729" />
<glyph glyph-name="flag-filled" unicode="&#xe842;" d="M640 693q25 25 57 11t32-47l0-418q0-21-15-36-80-80-193-80t-193 80q-46 46-110 50t-114-36l0-238q0-21-15-37t-36-16-37 16-16 37l0 678q0 21 15 36 80 80 193 80t193-80q50-50 119-50t119 50z" horiz-adv-x="729" />
<glyph glyph-name="flash-outline" unicode="&#xe8d9;" d="M495 767z m0 0l-391-369 261-151-130-313 390 370-260 150z m0 105q43 0 73-31t31-74q0-21-10-44l-93-224 181-105q44-25 51-77t-32-89l-390-370q-31-29-73-29-56 0-86 48t-9 98l95 228-181 105q-44 25-51 76t31 90l390 370q31 29 73 29z" horiz-adv-x="729" />
<glyph glyph-name="flow-split" unicode="&#xe900;" d="M678 142q65 0 111-46t46-111-46-111-111-46q-50 0-91 29t-57 76l-165 0q-108 0-184 76t-77 184l0 374q-45 16-74 57t-29 91q0 65 46 111t111 46 111-46 46-111q0-50-29-91t-74-57l0-9q0-65 46-111t111-46l165 0q16 45 57 74t91 29q65 0 111-46t46-111-46-111-111-46q-50 0-91 29t-57 74l-165 0q-84 0-156 54l0-158q0-65 46-111t111-46l165 0q16 45 57 74t91 29z m0 261q-21 0-37-16t-16-37 16-37 37-16 36 16 15 37-15 37-36 16z m-521 364q-21 0-37-15t-16-36 16-37 37-16 37 16 16 37-16 36-37 15z m521-833q21 0 36 15t15 36-15 37-36 16-37-16-16-37 16-36 37-15z" horiz-adv-x="834" />
<glyph glyph-name="flow-merge" unicode="&#xe901;" d="M729 133q46-16 76-57t29-91q0-65-46-111t-111-46-111 46-46 111q0 50 29 91t74 57l0 96q0 31-23 54t-55 23q-79 0-131 55-53-55-130-55-31 0-54-23t-23-54l0-96q45-16 74-57t29-91q0-65-46-111t-111-46-111 46-46 111q0 50 29 91t74 57l0 96q0 75 54 129t129 54q33 0 56 23t23 54l0 79q-46 16-76 57t-29 91q0 65 46 111t111 46 111-46 46-111q0-50-29-91t-74-57l0-79q0-31 23-54t56-23q75 0 128-54t53-129l0-96z m-573-199q21 0 37 15t16 36-16 37-37 16-37-16-16-37 16-36 37-15z m260 833q-21 0-36-15t-15-36 15-37 36-16 37 16 16 37-16 36-37 15z m261-833q21 0 36 15t15 36-15 37-36 16-37-16-16-37 16-36 37-15z" horiz-adv-x="834" />
<glyph glyph-name="flow-parallel" unicode="&#xe902;" d="M729 133q46-16 76-57t29-91q0-65-46-111t-111-46-111 46-46 111q0 50 29 91t74 57l0 435q-45 16-74 57t-29 91q0 65 46 111t111 46 111-46 46-111q0-50-29-91t-76-57l0-435z m-51 634q-21 0-37-15t-16-36 16-37 37-16 36 16 15 37-15 36-36 15z m0-833q21 0 36 15t15 36-15 37-36 16-37-16-16-37 16-36 37-15z m-365 781q0-50-29-91t-74-57l0-435q45-16 74-57t29-91q0-65-46-111t-111-46-111 46-46 111q0 50 29 91t74 57l0 435q-45 16-74 57t-29 91q0 65 46 111t111 46 111-46 46-111z m-156 51q-21 0-37-15t-16-36 16-37 37-16 37 16 16 37-16 36-37 15z m0-833q21 0 37 15t16 36-16 37-37 16-37-16-16-37 16-36 37-15z" horiz-adv-x="834" />
<glyph glyph-name="flow-cross" unicode="&#xe903;" d="M209 133q45-16 74-57t29-91q0-65-46-111t-111-46-111 46-46 111q0 50 29 91t74 57l0 35q0 98 76 166 49-40 95-60-66-39-66-106l0-35z m-53-199q21 0 37 15t16 36-16 37-37 16-37-16-16-37 16-36 37-15z m469 634q-45 16-74 57t-29 91q0 65 46 111t111 46 111-46 46-111q0-50-29-91t-76-57l0-18q0-105-79-180-44 36-95 56 70 44 70 124l0 18z m53 199q-21 0-37-15t-16-36 16-37 37-16 36 16 15 37-15 36-36 15z m49-634q48-15 78-56t30-92q0-65-46-111t-111-46-111 46-46 111q0 49 28 89t73 58q-14 71-72 119t-133 48q-118 0-205 78t-104 193q-48 15-78 56t-30 92q0 65 46 111t111 46 111-46 46-111q0-49-28-89t-73-58q14-71 71-119t133-48q118 0 206-78t104-192z m-570 634q-21 0-37-15t-16-36 16-37 37-16 37 16 16 37-16 36-37 15z m521-833q21 0 36 15t15 36-15 37-36 16-37-16-16-37 16-36 37-15z" horiz-adv-x="834" />
<glyph glyph-name="folder-add" unicode="&#xe870;" d="M781 663q65 0 111-46t46-111l0-416q0-65-46-111t-111-46l-625 0q-65 0-111 46t-46 111l0 520q0 65 46 111t111 46l209 0q43 0 73-31t31-73l313 0z m0-625q21 0 37 16t16 37l0 364-209 0q-10 0-18 8t-8 18 8 18 18 8l209 0q0 21-16 37t-37 16l-313 0q-44 0-74 31t-30 73l-209 0q-21 0-37-16t-16-37l0-104 209 0q10 0 18-8t8-18-8-18-18-8l-209 0 0-364q0-21 16-37t37-16l625 0z m-156 313q21 0 37-16t16-37-16-36-37-15l-104 0 0-105q0-21-16-36t-37-15-37 15-16 36l0 105-104 0q-21 0-37 15t-16 36 16 37 37 16l104 0 0 104q0 21 16 37t37 16 37-16 16-37l0-104 104 0z" horiz-adv-x="938" />
<glyph glyph-name="folder-delete" unicode="&#xe871;" d="M781 663q65 0 111-46t46-111l0-416q0-65-46-111t-111-46l-625 0q-65 0-111 46t-46 111l0 520q0 65 46 111t111 46l209 0q43 0 73-31t31-73l313 0z m-625 0q-21 0-37-16t-16-37l0-104 730 0q0 21-16 37t-37 16l-313 0q-44 0-74 31t-30 73l-209 0z m625-625q21 0 37 16t16 37l0 364-730 0 0-364q0-21 16-37t37-16l625 0z m-156 209l-313 0q-21 0-37 15t-16 36 16 37 37 16l313 0q21 0 37-16t16-37-16-36-37-15z" horiz-adv-x="938" />
<glyph glyph-name="folder" unicode="&#xe86f;" d="M781 663q65 0 111-46t46-111l0-416q0-65-46-111t-111-46l-625 0q-65 0-111 46t-46 111l0 520q0 65 46 111t111 46l209 0q43 0 73-31t31-73l313 0z m-625 0q-21 0-37-16t-16-37l0-104 730 0q0 21-16 37t-37 16l-313 0q-44 0-74 31t-30 73l-209 0z m625-625q21 0 37 16t16 37l0 364-730 0 0-364q0-21 16-37t37-16l625 0z" horiz-adv-x="938" />
<glyph glyph-name="gift" unicode="&#xe8f0;" d="M885 585q21 0 37-16t16-37l0-209q0-21-16-36t-37-15l0-261q0-65-46-111t-111-46l-520 0q-65 0-111 46t-46 111l0 261q-21 0-37 15t-16 36l0 209q0 21 16 37t37 16l123 0q-19 40-19 78 0 75 54 129t129 54q78 0 130-55 53 55 130 55 75 0 129-54t54-129q0-38-19-78l123 0z m-51-209l0 104-261 0 0-104 261 0z m-418 260l0-51 105 0 0 51-105 0z m105-156l-105 0 0-104 105 0 0 104z m78 261q-25 0-46-15t-28-39q20-3 34-17t14-34l0-46q15-5 26-5 33 0 56 23t23 54-24 55-55 24z m-339-79q0-31 23-54t56-23q11 0 26 5l0 46q0 20 14 34t34 17q-8 24-28 39t-46 15q-31 0-55-24t-24-55z m105-183l-261 0 0-104 261 0 0 104z m-156-520l156 0 0 364-209 0 0-313q0-21 16-36t37-15z m208 0l105 0 0 364-105 0 0-364z m313 0q21 0 37 15t16 36l0 313-209 0 0-364 156 0z" horiz-adv-x="938" />
<glyph glyph-name="globe-alt-outline" unicode="&#xe8d4;" d="M346 663q-86 0-147-61t-61-148 61-147 147-61 148 61 61 147-61 148-148 61z m0 104q129 0 221-92t92-221-92-221-221-92-221 92-92 221 92 221 221 92z m313-833q21 0 37-16t16-37-16-37-37-16l-520 0q-21 0-37 16t-16 37 16 37 37 16l208 0 0 51q-194 0-331 138-15 15-15 37t15 37 37 15 37-15q106-106 258-106 153 0 259 106t106 258q0 153-106 259l-38 36 108 106q15 15 37 15t37-15 14-37-16-37l-35-35q103-128 103-293 0-194-138-331-96-96-226-125l0-64 208 0z" horiz-adv-x="815" />
<glyph glyph-name="users-outline" unicode="&#xe80b;" d="M599 273q-108 0-184 76t-76 184 76 184 184 76 184-76 77-184-77-184-184-76z m0 416q-65 0-111-46t-46-111 46-111 111-46 111 46 46 111-46 111-111 46z m416-469q-55 0-93 38t-38 92 38 92 93 38 93-38 38-92-38-92-93-38z m0 209q-31 0-54-23t-23-56q0-31 23-54t55-23 56 23 23 54-23 55-56 24z m0-240q80 0 131-34t51-79q0-23-53-40t-130-18q-43 0-83 6 0-3 1-7t1-7q0-41-96-73t-239-31q-150 0-242 31t-92 73q0 3 1 8t1 8q-50-8-84-8-81 0-132 18t-51 40q0 45 50 79t133 34q99 0 151-50 99 81 265 81t265-81q53 50 151 50z m-833-118q60 0 103 11 5 8 13 18-38 38-115 38-98 0-126-49 44-18 126-18z m416-60q131 0 216 30-25 30-82 53t-134 23q-81 0-138-23t-80-53q84-30 218-30z m416 60q84 0 126 19-13 19-46 33t-81 14q-76 0-115-36 5-6 13-19 40-11 103-11z m-833 149q-55 0-93 38t-38 92 38 92 92 38 92-38 38-92-38-92-93-38z m0 209q-33 0-56-24t-23-55 23-54 56-23 55 23 23 54q0 33-23 56t-54 23z" horiz-adv-x="1198" />
<glyph glyph-name="users" unicode="&#xe80c;" d="M860 533q0-108-77-184t-184-76-184 76-76 184 76 184 184 76 184-76 77-184z m286-183q0-54-38-92t-93-38-93 38-38 92 38 92 93 38 93-38 38-92z m-131-161q80 0 131-34t51-79q0-23-53-40t-130-18q-43 0-83 6 0-3 1-7t1-7q0-41-96-73t-239-31q-150 0-242 31t-92 73q0 3 1 8t1 8q-50-8-84-8-81 0-132 18t-51 40q0 45 50 79t133 34q99 0 151-50 99 81 265 81t265-81q53 50 151 50z m-703 161q0-54-38-92t-93-38-93 38-38 92 38 92 93 38q54 0 92-38t38-92z" horiz-adv-x="1198" />
<glyph glyph-name="headphones" unicode="&#xe887;" d="M938 350l0-135q0-1-1-3t-1-3q1-13 1-41l0-104q0-75-54-129t-129-54-129 54-54 129l0 104q0 59 29 106t75 66q-4 83-64 141t-144 58-144-58-64-141q46-19 75-66t29-106l0-104q0-75-54-129t-129-54-129 54-54 129l0 104q0 29 1 41 0 1-1 3t-1 3l0 135q0 194 138 331t331 138 331-138 138-331z m-834 0l0-51 53 0q0 51 1 51 8 99 68 174l-46 46q-75-99-75-220z m156-286l0 104q0 34-16 56t-36 23l-99 0q-6-44-6-79l0-104q0-31 23-54t56-23 55 23 23 54z m386 469q14 14 40 39t39 38l33 33q-120 120-289 120t-289-120l93-93 19-18q73 73 178 73t178-73z m188-469l0 104q0 35-6 79l-99 0q-20 0-36-23t-16-56l0-104q0-31 23-54t55-23 56 23 23 54z m0 235l0 51q0 121-75 220l-46-46q61-78 69-174l0-51 53 0z" horiz-adv-x="938" />
<glyph glyph-name="heart" unicode="&#xe805;" d="M508-66q-16 0-29 9-26 18-84 58t-154 113-134 109q-106 106-106 264 0 116 82 198t198 82q143 0 228-118 39 55 99 86t129 31q116 0 198-82t81-198q0-158-106-264-38-38-133-109t-155-113-84-58q-13-9-30-9z m-228 729q-73 0-124-51t-52-125q0-114 76-190 79-79 328-248 249 169 328 248 76 76 76 190 0 74-51 125t-124 51q-74 0-125-51t-51-125q0-21-16-36t-37-15-36 15-15 36q0 74-52 125t-124 51z" horiz-adv-x="1015" />
<glyph glyph-name="heart-filled" unicode="&#xe806;" d="M456 487q0 95-67 161t-162 66-161-66-66-161q0-138 91-229 36-36 128-104t164-118l74-50q281 190 364 273 91 91 91 229 0 95-66 161t-161 66-161-66-66-161z" horiz-adv-x="911" />
<glyph glyph-name="home-outline" unicode="&#xe830;" d="M1108 422q39-30 39-80 0-43-31-73t-74-31l-51 0 0-313q0-44-31-74t-74-31l-625 0q-43 0-73 31t-31 74l0 313-53 0q-44 0-74 31t-30 73q0 46 36 79 79 66 204 174t211 181 88 75l34 29 35-29q1-1 87-75t211-181 203-173z m-430-496l0 260-209 0 0-260 209 0z m208 416l156 0q-231 194-469 400-238-206-469-400l156 0 0-416 156 0 0 313 313 0 0-313 156 0 0 416z" horiz-adv-x="1146" />
<glyph glyph-name="home" unicode="&#xe831;" d="M521 819q321-279 500-429 20-16 20-40 0-21-15-37t-36-16l-105 0 0-364q0-21-15-37t-36-16l-156 0q-21 0-37 16t-16 37l0 208-209 0 0-208q0-21-15-37t-36-16l-156 0q-21 0-37 16t-16 37l0 364-104 0q-21 0-37 16t-16 37 19 40z" horiz-adv-x="1041" />
<glyph glyph-name="picture-outline" unicode="&#xe814;" d="M339 559q-31 0-55-23t-24-56q0-31 23-54t56-23q31 0 54 23t23 55-23 56-54 23z m0 51q54 0 92-38t38-93-38-93-92-38-92 38-38 93 38 93 92 38z m156-416q-49 0-94 26t-89 26q-40 0-84-105l593 0q-19 85-46 146t-46 63q-34 0-96-70-25-28-41-42t-43-29-54-15z m234 209q46 0 85-78t55-157l16-78-729 0q3 9 6 23t19 49 31 63 44 50 56 23q55 0 101-26t81-26q25 0 54 24t53 54 58 54 69 24z m313 260l0-625q0-43-31-73t-73-31l-834 0q-44 0-74 31t-30 73l0 625q0 43 30 73t74 31l834 0q43 0 73-31t31-73z m-104-625l0 625-834 0 0-625 834 0z" horiz-adv-x="1041" />
<glyph glyph-name="picture" unicode="&#xe815;" d="M209 481q0 130 130 130t130-130-130-130-130 130z m520-79q41 0 78-61 51-93 79-251l-729 0 16 53q18 54 56 105t84 51q54 0 126-39 25-14 56-14 38 0 86 55 58 65 91 85 28 16 56 16z m-729 261q0 43 30 73t74 31l834 0q43 0 73-31t31-73l0-625q0-44-31-74t-73-31l-834 0q-43 0-73 31t-31 74l0 625z m938-625l0 625-834 0 0-625 834 0z" horiz-adv-x="1041" />
<glyph glyph-name="infinity-outline" unicode="&#xe912;" d="M1016 351q0 93-67 159t-158 66q-94 0-159-65l-73-70-71 69q-66 66-160 66-91 0-158-66t-67-159 67-159 158-66q94 0 159 65l73 70 71-70q65-65 159-65 93 0 159 67t67 158z m-225 329q136 0 233-96t96-233-96-233q-98-98-233-98-136 0-231 95-95-95-231-95-135 0-233 98-96 96-96 233t96 233 233 96q138 0 231-94 94 94 231 94z m-505-329q0-18 13-30t30-13 30 13l33 30-30 29q-14 14-33 14-18 0-30-13t-13-30z m-53 0q0 39 28 67t67 28q40 0 69-29l69-66-70-68q-26-26-68-26-39 0-67 28t-28 66z m600 0q0 18-12 29t-31 12q-20 0-31-11l-31-30 30-29q14-14 33-14 18 0 30 13t13 30z m51 0q0-39-28-66t-66-28q-41 0-69 28l-69 66 70 66q28 28 68 28 39 0 66-28t28-66z" horiz-adv-x="1120" />
<glyph glyph-name="info-outline" unicode="&#xe82e;" d="M429 115q50-6 78-51 19-31 13-69t-34-61q-93-79-215-79-160 0-220 123-53 109 13 238l30 58q-51 6-79 51-19 31-13 69t34 61q64 54 154 71-33 53-33 111 0 86 61 148t148 61 147-61 61-148q0-63-34-114t-91-77q40-53 44-123t-34-149z m-64 625q-44 0-74-31t-31-73 31-73 74-31q43 0 73 31t31 73-31 73-73 31z m-95-781q39 0 76 13t54 27l16 13q-33-11-63-11-46 0-56 33t15 82l53 104q44 91 10 150t-124 59q-39 0-76-13t-54-26l-18-13q34 11 64 11 46 0 56-34t-15-81l-53-104q-44-91-10-151t124-59z" horiz-adv-x="573" />
<glyph glyph-name="info" unicode="&#xe82f;" d="M331 37q19 6 31-12t-4-33q-5-5-22-16t-59-26-84-15q-109 0-149 79-35 74 13 168l53 104q28 55 3 73-5 5-21 5-11 0-24-3t-22-5l-8-3q-19-6-31 11t4 33q6 6 22 17t58 26 84 16q111 0 150-79 35-74-13-168l-53-104q-28-56-3-74 4-4 21-4 11 0 24 3t22 5z m-174 600q0 130 130 130t130-130-130-130-130 130z" horiz-adv-x="417" />
<glyph glyph-name="attention" unicode="&#xe85c;" d="M514 701q-49 0-81-55l-308-513q-33-55-11-95t87-40l625 0q65 0 86 40t-11 95l-308 513q-33 55-80 55z m0 105q106 0 169-106l309-514q63-105 11-199-51-93-176-93l-625 0q-124 0-178 93-53 93 11 199l309 514q63 106 170 106z m78-690q-5-5-13-13t-36-19-56-11q-39 3-55 34t-1 78l21 63q15 45-13 60-10 4-23 2t-23-6l-11-5q5 5 14 13t36 19 56 11q39-3 55-34t1-78l-21-63q-16-45 11-60 10-4 23-2t24 6z m-146 351q0 69 69 69 68 0 68-69 0-68-68-68-69 0-69 68z" horiz-adv-x="1026" />
<glyph glyph-name="check-outline" unicode="&#xe8ee;" d="M625 741q86 0 134-75t3-156l-33-58 0-336q0-65-46-111t-111-46l-416 0q-65 0-111 46t-46 111l0 418q0 65 46 111t111 46l354 0q45 51 115 51z m-45-130l-176-304-106 106q-15 15-38 15-21 0-36-15t-15-37 15-37l156-156q15-15 36-15 31 0 46 26l209 365q18 33-6 59t-61 13q-18-9-24-21z m-8-546q21 0 37 15t16 36l0 259-118-205q-30-54-91-54-43 0-74 31l-156 156q-31 31-31 74t31 74q30 30 74 30t74-30l59-59 113 193-349 0q-21 0-37-15t-16-36l0-418q0-21 16-36t37-15l416 0z" horiz-adv-x="783" />
<glyph glyph-name="check" unicode="&#xe8ef;" d="M573-15l-416 0q-65 0-111 46t-46 111l0 418q0 65 46 111t111 46l260 0q21 0 37-16t16-37-16-37-37-16l-260 0q-21 0-37-15t-16-36l0-418q0-21 16-36t37-15l416 0q21 0 37 15t16 36l0 156q0 21 16 37t37 16 36-16 15-37l0-156q0-65-46-111t-111-46z m-148 218q-29 0-49 20l-139 139q-20 21-20 50t20 49 49 20 49-20l75-74 180 284q14 25 42 33t53-6 33-42-6-53l-225-364q-19-36-61-36z" horiz-adv-x="729" />
<glyph glyph-name="key-outline" unicode="&#xe8fe;" d="M313-67l-313 0 0 230 198 198q-15 45-15 94 0 130 91 221t221 91 221-91 91-221-91-221-221-91l-79 0 0-105-104 0 0-104z m-209 104l105 0 0 105 104 0 0 104 183 0q86 0 147 61t61 148-61 147-147 61-148-61-61-147q0-45 19-86l15-33-216-216 0-83z m391 469q-21 0-37-15t-16-36 16-37 37-16 37 16 16 37-16 36-37 15z m0 53q43 0 73-31t31-73q0-44-31-74t-73-31-74 31-31 74 31 73 74 31z" horiz-adv-x="808" />
<glyph glyph-name="leaf" unicode="&#xe8e7;" d="M885 402q0-180-109-322t-281-188l0-64q0-21-16-36t-37-15-37 15-16 36l0 64q-173 46-281 188t-109 322q0 191 123 338t311 182l9 1 10-1q189-35 311-182t122-338z m-390-401q128 44 207 154t79 248q0 151-96 268t-243 147q-148-30-243-147t-96-268q0-136 80-247t208-154l0 156-228 226q-11 11-6 25t18 18 26-6l190-190 0 188-124 123q-11 11-6 25t18 18 26-6l85-85 0 171q0 21 16 37t37 16 37-16 16-37l0-171 85 85q11 11 26 6t18-18-6-25l-123-123 0-188 190 190q18 18 36-1t1-36l-226-226 0-156z" horiz-adv-x="885" />
<glyph glyph-name="lightbulb" unicode="&#xe88b;" d="M390 663q64 0 109-46t46-109q0-11-8-19t-19-8-19 8-8 19q0 43-30 73t-73 30q-25 0-25 26t25 26z m0-860q-21 0-36 16t-15 37l-104 0q-21 0-37 16t-16 37l0 156q0 31-23 76t-90 143q-70 96-70 224 0 161 114 276t276 114 276-114 115-276q0-121-71-224-68-96-89-141t-22-78l0-156q0-21-15-37t-36-16l-105 0q0-21-16-37t-37-16z m105 156l0 53-209 0 0-53 209 0z m130 383q53 76 53 165 0 118-84 202t-203 84q-118 0-202-84t-84-202q0-88 53-164 106-155 124-228l59 0 0 105q0 21 15 36t36 15 37-15 16-36l0-105 58 0q16 71 125 226z" horiz-adv-x="781" />
<glyph glyph-name="link-outline" unicode="&#xe832;" d="M786 720q-24 0-40-16l-90-90-16 16q-45 45-114 45t-114-45l-218-218q-48-48-48-115 0-66 48-114l15-16-89-89q-16-16-16-40t16-41q18-18 40-18 24 0 41 18l89 90 16-16q48-48 115-48 66 0 114 48l218 218q46 46 46 114t-46 114l-16 16 90 90q18 18 18 41t-18 40q-16 16-41 16z m-625-844q-66 0-114 48t-48 113q0 68 48 115l25 25q-29 58-29 120 0 111 78 189l218 218q76 76 188 76 65 0 120-29l26 26q46 46 114 46 66 0 114-48t48-113q0-69-48-114l-25-25q30-60 30-121 0-109-79-188l-216-218q-78-78-189-78-64 0-121 29l-25-25q-48-48-114-48z m414 469q-43 1-74 33t-33 74l-95-96q43-1 73-32t32-73z m-49 218q19 0 33-14l16-16-38-38q-18-18-18-41t18-40q16-16 40-16 25 0 41 16l38 38 16-16q14-14 14-33 0-20-14-34l-218-216q-14-14-33-14-20 0-34 14l-16 15 38 38q18 18 18 41t-18 40q-18 18-40 18-24 0-41-18l-38-38-16 16q-13 13-13 33 0 21 13 34l218 218q14 14 34 14z" horiz-adv-x="948" />
<glyph glyph-name="link" unicode="&#xe833;" d="M723 704q18-16 18-40t-18-41l-89-90 15-16q48-48 48-114t-48-114l-216-218q-48-48-115-48-66 0-114 48l-16 16-90-90q-18-18-40-18-24 0-41 18-16 18-16 41t16 40l90 89-16 16q-46 46-46 115 0 68 46 114l218 218q46 46 114 46t114-46l16-16 89 90q16 16 40 16t41-16z m-154-335q13 13 13 34 0 20-13 33l-16 16-38-38q-16-16-41-16-24 0-40 16t-16 40 16 41l38 38-16 16q-14 14-33 14-20 0-34-14l-218-218q-14-14-14-33 0-20 14-34l16-16 38 38q18 18 41 18t40-18q16-16 16-40t-16-41l-38-38 16-15q14-14 33-14 20 0 34 14z" horiz-adv-x="740" />
<glyph glyph-name="direction-outline" unicode="&#xe866;" d="M416-47q-60 0-86 78l-64 189-189 63q-74 24-78 84-4 58 68 90l593 278q41 19 73 13t49-33q25-41-3-100l-276-593q-31-68-88-68z m-280 420l213-71 71-214 249 534z" horiz-adv-x="795" />
<glyph glyph-name="direction" unicode="&#xe867;" d="M328 47l-71 214-214 71q-28 9-38 23t-2 29 34 26l593 276q40 18 54 3t-3-54l-278-593q-11-26-26-34t-28 2-23 38z" horiz-adv-x="691" />
<glyph glyph-name="location-outline" unicode="&#xe863;" d="M416 741q-129 0-221-90-91-89-91-216 0-126 91-215l221-219 223 219q90 88 90 215 0 129-90 216-93 90-223 90z m0 104q174 0 295-120t121-290-121-290l-295-290-294 290q-123 120-123 290t123 290 294 120z m0-286q-53 0-91-39t-39-92 39-92q38-38 91-38 55 0 93 38 39 39 39 92t-39 92-93 39z m0 53q75 0 129-54t54-129-54-129-129-54-129 54-54 129 54 129 129 54z" horiz-adv-x="833" />
<glyph glyph-name="location" unicode="&#xe864;" d="M711 725q121-120 121-290t-121-290l-295-290-294 290q-123 120-123 290t123 290 295 120 294-120z m-295-426q55 0 93 38 39 39 39 92t-39 92-93 39q-53 0-91-39t-39-92 39-92q38-38 91-38z" horiz-adv-x="833" />
<glyph glyph-name="lock" unicode="&#xe836;" d="M298 116q0 68 68 68t68-68-68-68-68 68z m68 676q85 0 146-61t61-146l0-105 53 0q43 0 73-31t31-73l0-365q0-43-31-73t-73-31l-521 0q-44 0-74 31t-30 73l0 365q0 43 30 73t74 31l53 0 0 105q0 60 29 107t74 73q48 28 105 28z m0-104q-44 0-74-31t-31-73l0-156 209 0 0 156q0 44-31 74t-73 30z m260-678l0 365-521 0 0-365 521 0z" horiz-adv-x="729" />
<glyph glyph-name="lock-filled" unicode="&#xe837;" d="M625 480q43 0 73-31t31-73l0-365q0-43-31-73t-73-31l-521 0q-44 0-74 31t-30 73l0 365q0 43 30 73t74 31l53 0 0 105q0 86 61 147t148 61 147-61 61-147l0-105 53 0z m-260-431q28 0 48 20t20 48-20 48-48 20-48-20-20-48 20-48 48-20z m104 380l0 156q0 44-31 74t-73 30q-44 0-74-31t-31-73l0-156 209 0z" horiz-adv-x="729" />
<glyph glyph-name="lock-open" unicode="&#xe838;" d="M298 116q0 68 68 68t68-68-68-68-68 68z m-298 260q0 43 30 73t74 31l156 0 0-51 209 0 0 156q0 69 36 118t92 73q38 16 81 16 85 0 146-61t61-146l0-156q0-21-15-37t-36-16-37 16-16 37l0 156q0 44-31 74t-73 30q-44 0-74-31t-31-73l0-105 53 0q43 0 73-31t31-73l0-365q0-43-31-73t-73-31l-521 0q-44 0-74 31t-30 73l0 365z m625-365l0 365-521 0 0-365 521 0z" horiz-adv-x="885" />
<glyph glyph-name="lock-open-filled" unicode="&#xe839;" d="M678 793q86 0 147-61t61-147l0-156q0-21-15-37t-36-16-37 16-16 37l0 156q0 44-31 74t-73 30q-44 0-74-31t-31-73l0-105 53 0q43 0 73-31t31-73l0-365q0-43-31-73t-73-31l-521 0q-44 0-74 31t-30 73l0 365q0 43 30 73t74 31l156 0 0-51 209 0 0 156q0 86 61 147t148 61z m-313-744q28 0 48 20t20 48-20 48-48 20-48-20-20-48 20-48 48-20z" horiz-adv-x="885" />
<glyph glyph-name="mail" unicode="&#xe804;" d="M834 688q44 0 74-30t30-74l0-469q0-43-30-73t-74-31l-730 0q-44 0-74 31t-30 73l0 469q0 44 30 74t74 30l730 0z m-421-454l-81 71-190-190 655 0-190 190-81-71q-24-20-56-20t-56 20z m-309-83l188 189-188 164 0-353z m543 189l188-188 0 351z m188 244l-730 0 0-11 343-300q9-8 23-8t23 8l343 300 0 11z" horiz-adv-x="938" />
<glyph glyph-name="map" unicode="&#xe865;" d="M53-93q-23 0-38 16t-15 36l0 521q0 21 15 36l235 235q14 14 34 15t35-11l224-179 203 201q25 25 57 10t32-48l0-520q0-21-16-38l-234-234q-14-14-34-15t-36 11l-224 179-201-201q-15-15-36-15z m51 178q153 150 156 153l0 378-156-156 0-374z m215 149l203-161 0 389-209 165 0-389q1-1 3-3t3-1z m410 8l0 374q-153-151-156-154l0-376z" horiz-adv-x="834" />
<glyph glyph-name="eject-alt-outline" unicode="&#xe8c1;" d="M573-93l-416 0q-65 0-111 46t-46 111 46 111 111 46l416 0q65 0 111-46t46-111-46-111-111-46z m-416 209q-21 0-37-16t-16-37 16-37 37-16l416 0q21 0 37 16t16 37-16 37-37 16l-416 0z m209 528l-256-264-3-3t-3-1l521 0-1 1-1 1z m0 149q201-206 335-344 29-29 29-73 0-43-31-73t-73-31l-521 0q-44 0-74 31t-30 73 30 73z" horiz-adv-x="729" />
<glyph glyph-name="eject-alt" unicode="&#xe8c2;" d="M625 142q43 0 73-31t31-73-31-73-73-31l-521 0q-44 0-74 31t-30 73 30 73 74 31l521 0z m75 281q29-29 29-73 0-43-31-73t-73-31l-521 0q-44 0-74 31t-30 73 30 73l335 344q201-206 335-344z" horiz-adv-x="729" />
<glyph glyph-name="fast-fw-outline" unicode="&#xe8b9;" d="M573 559l0-419 216 210z m-10 119q36 0 65-26l310-301q-186-181-310-301-28-28-65-28-39 0-66 28t-28 66l0 469q0 39 28 66t66 28z m-459-119l0-419 216 210z m-10 119q36 0 65-26l310-301q-186-181-310-301-28-28-65-28-39 0-66 28t-28 66l0 469q0 39 28 66t66 28z" horiz-adv-x="938" />
<glyph glyph-name="fast-fw" unicode="&#xe8ba;" d="M628 652l310-301q-186-181-310-301-28-28-65-28-39 0-66 28t-28 66l0 469q0 39 28 66t66 28q36 0 65-26z m-469 0l310-301q-186-181-310-301-28-28-65-28-39 0-66 28t-28 66l0 469q0 39 28 66t66 28q36 0 65-26z" horiz-adv-x="938" />
<glyph glyph-name="pause-outline" unicode="&#xe8b7;" d="M156-41q-65 0-111 46t-46 111l0 469q0 65 46 111t111 46 111-46 46-111l0-469q0-65-46-111t-111-46z m0 676q-21 0-37-15t-16-36l0-469q0-21 16-37t37-16 37 16 16 37l0 469q0 21-16 36t-37 15z m365-676q-65 0-111 46t-46 111l0 469q0 65 46 111t111 46 111-46 46-111l0-469q0-65-46-111t-111-46z m0 676q-21 0-37-15t-16-36l0-469q0-21 16-37t37-16 36 16 15 37l0 469q0 21-15 36t-36 15z" horiz-adv-x="678" />
<glyph glyph-name="pause" unicode="&#xe8b8;" d="M104 663q44 0 74-31t31-73l0-418q0-43-31-73t-74-31-74 30-30 74l0 418q0 44 30 74t74 30z m365 0q44 0 74-30t30-74l0-418q0-44-30-74t-74-30-74 30-30 74l0 418q0 44 30 74t74 30z" horiz-adv-x="573" />
<glyph glyph-name="play-outline" unicode="&#xe8b3;" d="M104 610l0-520q1 0 1 1t1 1l265 259-263 256-3 3t-3 1z m0 105q44 0 74-30l344-335q-208-201-345-335-30-30-73-30t-73 31-31 74l0 520q0 44 31 74t73 31z" horiz-adv-x="521" />
<glyph glyph-name="play" unicode="&#xe8b4;" d="M178 15q-30-30-74-30-43 0-73 31t-31 74l0 520q0 44 31 74t73 31q44 0 74-30l344-335q-206-201-344-335z" horiz-adv-x="521" />
<glyph glyph-name="record-outline" unicode="&#xe8bd;" d="M313 559q-86 0-148-61t-61-148 61-148 148-61 148 61 61 148-61 148-148 61z m0 104q130 0 221-91t91-221-91-221-221-91-221 91-91 221 91 221 221 91z" horiz-adv-x="625" />
<glyph glyph-name="record" unicode="&#xe8be;" d="M313 663q130 0 221-91t91-221-91-221-221-91-221 91-91 221 91 221 221 91z" horiz-adv-x="625" />
<glyph glyph-name="rewind-outline" unicode="&#xe8bb;" d="M365 559l-216-209 216-210 0 419z m10 119q39 0 66-28t28-66l0-469q0-39-28-66t-66-28q-35 0-65 28l-310 301q186 181 310 301 26 26 65 26z m459-119l-216-209 216-210 0 419z m10 119q39 0 66-28t28-66l0-469q0-39-28-66t-66-28q-35 0-65 28l-310 301q186 181 310 301 26 26 65 26z" horiz-adv-x="938" />
<glyph glyph-name="rewind" unicode="&#xe8bc;" d="M375 678q39 0 66-28t28-66l0-469q0-39-28-66t-66-28q-35 0-65 28l-310 301q186 181 310 301 26 26 65 26z m469 0q39 0 66-28t28-66l0-469q0-39-28-66t-66-28q-35 0-65 28l-310 301q186 181 310 301 26 26 65 26z" horiz-adv-x="938" />
<glyph glyph-name="stop-outline" unicode="&#xe8b5;" d="M521 559l-418 0 0-418 418 0 0 418z m0 104q44 0 74-30t30-74l0-418q0-44-30-74t-74-30l-418 0q-44 0-74 30t-30 74l0 418q0 44 30 74t74 30l418 0z" horiz-adv-x="625" />
<glyph glyph-name="stop" unicode="&#xe8b6;" d="M521 663q44 0 74-30t30-74l0-418q0-44-30-74t-74-30l-418 0q-44 0-74 30t-30 74l0 418q0 44 30 74t74 30l418 0z" horiz-adv-x="625" />
<glyph glyph-name="chat" unicode="&#xe859;" d="M834 767q65 0 111-46t46-111l0-365q0-65-46-111t-111-46l-469 0-156-156 0 156-53 0q-65 0-111 46t-46 111l0 365q0 65 46 111t111 46l678 0z m51-521l0 365q0 21-15 37t-36 16l-678 0q-21 0-37-16t-16-37l0-365q0-21 16-36t37-15l678 0q21 0 36 15t15 36z m-625 79q-43 0-73 30t-31 74 31 74 73 30q44 0 74-31t31-73-31-73-74-31z m0 156q-21 0-36-16t-15-37 15-36 36-15 37 15 16 36-16 37-37 16z m235-156q-44 0-74 31t-31 73 31 73 74 31q43 0 73-30t31-74-31-74-73-30z m0 156q-21 0-37-16t-16-37 16-36 37-15 37 15 16 36-16 37-37 16z m234-156q-44 0-74 30t-30 74 30 74 74 30 74-31 31-73-31-73-74-31z m0 156q-21 0-36-16t-15-37 15-36 36-15 37 15 16 36-16 37-37 16z" horiz-adv-x="990" />
<glyph glyph-name="comment" unicode="&#xe858;" d="M781 662l-625 0q-21 0-37-15t-16-36l0-365q0-21 16-37t37-16l156 0 0-9 9 9 460 0q21 0 37 16t16 37l0 365q0 21-16 36t-37 15z m0 105q65 0 111-46t46-111l0-365q0-65-46-111t-111-46l-416 0-156-156 0 156-53 0q-65 0-111 46t-46 111l0 365q0 65 46 111t111 46l625 0z" horiz-adv-x="938" />
<glyph glyph-name="chat-alt" unicode="&#xe85a;" d="M1094 688q65 0 111-46t46-111l0-364q0-65-46-111t-111-46l-53 0 0-156-156 156-416 0q-65 0-111 46t-46 111l-156-156 0 156q-65 0-111 46t-46 111l0 364q0 65 46 111t111 46l625 0q65 0 111-46t46-111l156 0z m-938-416l209 0 0 234q0 54 38 93t92 39l339 0 0 51q0 21-16 37t-37 16l-625 0q-21 0-37-16t-16-37l0-364q0-21 16-37t37-16z m990-104l0 364q0 21-16 37t-37 16l-599 0q-33 0-56-23t-23-56l0-338q0-21 16-37t37-16l625 0q21 0 37 16t16 37z" horiz-adv-x="1250" />
<glyph glyph-name="mic-outline" unicode="&#xe881;" d="M365 142q-86 0-148 61t-61 148l0 313q0 86 61 148t148 61 147-61 61-148l0-313q0-86-61-148t-147-61z m0 625q-44 0-74-31t-31-73l0-313q0-43 31-73t74-31q43 0 73 31t31 73l0 313q0 43-31 73t-73 31z m364-416q0-136-89-239t-223-121l0-56 156 0q21 0 37-16t16-37-16-37-37-16l-416 0q-21 0-37 16t-16 37 16 37 37 16l156 0 0 56q-134 19-223 121t-89 239l0 104q0 21 16 37t37 16 36-16 15-37l0-104q0-108 77-184t184-76 184 76 76 184l0 104q0 21 16 37t37 16 36-16 15-37l0-104z" horiz-adv-x="729" />
<glyph glyph-name="minus-outline" unicode="&#xe828;" d="M781 194l-625 0q-65 0-111 46t-46 111 46 111 111 46l625 0q65 0 111-46t46-111-46-111-111-46z m-625 209q-21 0-37-16t-16-37 16-36 37-15l625 0q21 0 37 15t16 36-16 37-37 16l-625 0z" horiz-adv-x="938" />
<glyph glyph-name="minus" unicode="&#xe829;" d="M729 455q44 0 74-31t31-74-31-73-74-31l-625 0q-44 0-74 31t-30 73q0 44 31 74t73 31l625 0z" horiz-adv-x="834" />
<glyph glyph-name="news" unicode="&#xe86e;" d="M1041 767q44 0 74-31t31-73l0-625q0-43-31-73t-74-31l-938 0q-44 0-74 31t-30 73l0 625q0 43 30 73t74 31l938 0z m-938-104l0-625 418 0 0 625-418 0z m938-625l0 625-469 0 0-625 469 0z m-51 235l0-158q0-10-8-18t-18-8l-53 0q-10 0-18 8t-8 18l0 158q0 10 8 18t18 8l53 0q10 0 18-8t8-18z m-156 313l0-261q0-10-8-18t-18-8l-156 0q-10 0-18 8t-8 18l0 261q0 10 8 18t18 8l156 0q10 0 18-8t8-18z m78-131q-10 0-18 8t-8 18 8 18 18 8l53 0q10 0 18-8t8-18-8-18-18-8l-53 0z m0-104q-10 0-18 8t-8 18 8 18 18 8l53 0q10 0 18-8t8-18-8-18-18-8l-53 0z m-260-156q-10 0-18 8t-8 18 8 18 18 8l156 0q10 0 18-8t8-18-8-18-18-8l-156 0z m156-53q10 0 18-8t8-18-8-18-18-8l-156 0q-10 0-18 8t-8 18 8 18 18 8l156 0z m104 418q-10 0-18 8t-8 18 8 18 18 8l53 0q10 0 18-8t8-18-8-18-18-8l-53 0z m-443 26l0-158q0-10-8-18t-18-8l-260 0q-10 0-18 8t-8 18l0 158q0 10 8 18t18 8l260 0q10 0 18-8t8-18z m-26-339q10 0 18-8t8-18-8-18-18-8l-260 0q-10 0-18 8t-8 18 8 18 18 8l260 0z m0 104q10 0 18-8t8-18-8-18-18-8l-260 0q-10 0-18 8t-8 18 8 18 18 8l260 0z m0-209q10 0 18-8t8-18-8-18-18-8l-260 0q-10 0-18 8t-8 18 8 18 18 8l260 0z" horiz-adv-x="1146" />
<glyph glyph-name="music-outline" unicode="&#xe800;" d="M729 797q43 0 74-31t31-73l0-529q0-86-69-147t-166-61q-93 0-159 56-30-50-85-79t-120-29q-96 0-166 61t-69 148q0 66 44 121t113 76l0 318q0 40 26 69t65 34l469 65q1 0 6 1t6 1z m-313-633q0 59 44 103t112 53l0 90-156-23 0-223z m313 0l0 529-469-66 0-413q-18 3-25 3-55 0-93-31t-38-73q0-44 39-74t93-31 92 31 38 74l0 319 260 39 0-204q-18 3-26 3-54 0-92-31t-38-74 38-74 92-30 92 30 38 74z" horiz-adv-x="834" />
<glyph glyph-name="music" unicode="&#xe801;" d="M753 794q11 1 20-7t9-19l0-629q0-54-46-92t-111-38-111 38-46 92 46 93 111 39l0 194-313-33 0-396q0-54-46-92t-111-38-111 38-46 92 46 92 111 38l0 538q0 10 7 18t16 9z" horiz-adv-x="781" />
<glyph glyph-name="pen" unicode="&#xe854;" d="M756 846q96 0 166-70t70-166q0-28-9-63 25-78-31-134l-234-235q-38-38-93-38l-4 0-113-113q-31-31-79-50-13-5-361-121-10-3-16-3-26 0-43 21t-8 46q116 349 121 361 19 48 51 80 414 413 415 414 71 69 165 69z m-381-778l-159 159q-3-8-15-44t-21-63l89-89q44 14 106 36z m-214-3q-9-25-26-78l79 26z m401 163q-15 23-13 50t22 48l193 193-143 143-371-373q-6-6-10-11l184-184q1 1 6 4t7 5z m316 259q18 18-1 36t-36 1l-235-234q-13-13-5-29t24-16q11 0 19 8z m-79 68q39 39 85 24 4 15 4 31 0 54-39 93-41 39-97 37t-96-42z" horiz-adv-x="992" />
<glyph glyph-name="phone-outline" unicode="&#xe876;" d="M964 733q31-31 53-74t27-109-12-137-74-164-149-185q-236-236-454-236-134 0-215 81l-93 93q-46 46-46 111t46 111l83 83q46 46 110 46t110-46l73-71 218 216-73 73q-46 46-46 111t46 111l83 83q45 45 111 45 65 0 110-45z m-324-63q-15-15-15-37t15-37l56-56 156 156-56 56q-15 15-36 15-23 0-38-15z m-521-595l58-56 156 156-58 56q-15 15-36 15t-36-15l-84-83q-15-15-15-37t15-37z m615 63q81 81 130 159t64 133 11 105-17 78-32 47l-156-156 15-15q15-15 15-37t-15-37l-291-291q-15-15-36-15-23 0-38 15l-15 16-156-158q50-50 141-50 174 0 380 206z" horiz-adv-x="1044" />
<glyph glyph-name="pi-outline" unicode="&#xe914;" d="M781 676q64 0 110-46t46-110q0-65-46-111-48-49-110-76l0-216q0-65-46-111t-111-46-111 46-46 111q0-65-46-111t-111-46-111 46-46 111l0 248q-64 0-110 46t-46 110 46 110q111 111 266 111t266-111q19-19 46-19t46 19q46 46 110 46z m36-194q15 15 15 37t-15 37q-16 16-36 16t-36-16q-49-49-120-49t-120 49q-80 80-193 80t-193-80q-15-15-15-37t15-37 36-15 36 15q30 30 68 41l0-408q0-21 16-37t37-16 37 16 16 37l0 408q38-11 68-41 58-58 140-74l0-293q0-21 16-37t37-16 37 16 16 37l0 293q83 16 140 74z" horiz-adv-x="938" />
<glyph glyph-name="pi" unicode="&#xe915;" d="M714 557q15-15 15-37t-15-37q-58-58-141-74l0-293q0-21-15-37t-36-16-37 16-16 37l0 293q-84 16-141 74-30 30-68 41l0-408q0-21-15-37t-36-16-37 16-16 37l0 408q-38-11-68-41-15-15-37-15t-37 15-15 37 15 37q80 80 193 80t193-80q50-50 119-50t119 50q15 15 37 15t37-15z" horiz-adv-x="729" />
<glyph glyph-name="pin-outline" unicode="&#xe83a;" d="M856 554q30-30 30-73t-30-74q-16-16-36-24-106-51-144-125-51-103-51-246 0-45-29-74t-74-29q-48 0-75 30l-168 169-279-199 199 279-169 168q-20 19-27 49t4 64q28 65 96 65 146 0 246 50l11 6q69 38 118 141 8 20 21 34 30 30 74 29t73-31z m-274-250q54 108 196 175l-205 211q-69-146-176-200l-13-6q-120-56-281-56l416-416q0 168 63 293z" horiz-adv-x="886" />
<glyph glyph-name="pin" unicode="&#xe83b;" d="M573 37q0-23-14-38t-37-15q-21 0-38 16l-169 169-315-236 236 315-169 169q-24 24-11 56 14 33 48 33 158 0 270 56 90 45 151 171 9 24 36 32t50-13l208-209q21-23 14-50t-31-36q-128-63-173-151-56-110-56-269z" horiz-adv-x="834" />
<glyph glyph-name="pipette" unicode="&#xe8eb;" d="M898 769q59-59 59-153t-63-146q-53-41-190-93l84-84q15-15 15-37t-15-37-36-15q-23 0-38 15l-15 15-273-273q-31-31-79-50-1-1-29-11t-78-20-91-11q-78 0-114 36-24 24-32 64t-4 81 14 79 17 61 9 25q19 48 51 80l273 273-16 15q-15 15-15 37t15 37 37 15 37-15l85-85q53 140 91 190 51 65 148 65 91 0 151-60z m-788-788q24-20 135 8l-126 126q-28-111-9-134z m191 25q34 13 51 30l273 273-186 186-273-273q-15-15-30-50z" horiz-adv-x="958" />
<glyph glyph-name="plane-outline" unicode="&#xe8e5;" d="M963 363q51-29 71-86t-4-112q-24-54-77-79t-111-9l-140 40 0-44 46-36q46-38 56-97t-23-109q-33-51-90-68t-111 11q-26 10-60 10-15 0-31-3t-23-5l-8-3q-54-28-111-11t-90 68q-33 50-23 109t56 97l46 36 0 44-140-40q-58-16-110 9t-76 79-4 111 71 86l260 148 0 250q0 75 54 129t129 54 128-54 53-129l0-250z m-29-156q8 18 1 36t-24 29l-313 179 0 310q0 33-23 56t-54 23-55-23-24-56l0-310-313-179q-16-9-23-28t1-37 25-26 36-4l273 78 0-231-85-68q-16-13-19-33t8-37 30-21 38 4q44 20 108 20 29 0 55-5t39-10l13-5q18-10 38-4t30 22 8 37-19 33l-85 68 0 231 273-78q19-5 37 4t26 26z m-439 566q0 26 26 26 25 0 25-26 0-25-25-25-26 0-26 25z" horiz-adv-x="1043" />
<glyph glyph-name="plane" unicode="&#xe8e6;" d="M808 272q35-20 24-59t-50-39q-4 0-14 3l-273 78 0-231 85-68q29-25 16-59t-48-34q-10 0-20 4l-111 45-110-45q-18-8-36-1t-29 24q-10 16-6 36t19 32l85 68 0 231-273-78q-19-5-37 4t-26 26-1 36 24 29l313 179 0 310q0 33 23 56t54 23 55-23 24-56l0-310z m-391 476q11 0 19 8t8 19q0 25-26 25-25 0-25-25 0-26 25-26z" horiz-adv-x="834" />
<glyph glyph-name="plug" unicode="&#xe8c8;" d="M365 64q-151 0-258 106t-107 258l104 0q0-108 77-184t184-76 184 76 76 184l104 0q0-151-106-258t-258-106z m313 286q-21 0-37 16t-16 37l0 156-521 0 0-156q0-21-15-37t-36-16-37 16-16 37l0 208q0 21 16 37t37 16l625 0q21 0 36-16t15-37l0-208q0-21-15-37t-36-16z m-418 469l-104 0 0-156 104 0 0 156z m0 53q21 0 37-16t16-37l0-156q0-21-16-37t-37-16l-104 0q-21 0-37 16t-16 37l0 156q0 21 16 37t37 16l104 0z m156-808l-104 0 0-130 104 0 0 130z m0 104q44 0 74-31t31-73l0-130q0-44-31-74t-74-31l-104 0q-43 0-73 31t-31 74l0 130q0 44 31 74t73 30l104 0z m156 651l-104 0 0-156 104 0 0 156z m0 53q21 0 37-16t16-37l0-156q0-21-16-37t-37-16l-104 0q-21 0-37 16t-16 37l0 156q0 21 16 37t37 16l104 0z m105-521l-625 0q-11 0-19 8t-8 19 8 19 19 8l625 0q25 0 25-26t-25-26z m-313-235q-25 0-53 6l0-84 104 0 0 84q-28-6-51-6z m-156-78l0 104 51 0 0-104-51 0z m260 0l0 104 53 0 0-104-53 0z" horiz-adv-x="729" />
<glyph glyph-name="plus-outline" unicode="&#xe826;" d="M469-119q-65 0-111 46t-46 111l3 159-158-3q-65 0-111 46t-46 111 46 111 111 46l159 3-3 153q0 65 46 111t111 46 111-46 46-111l3-154 155-3q64 0 109-46t46-111-46-111-111-46l-154 3-3-160q0-64-46-109t-111-46z m-53 416l0-261q0-21 16-36t37-15 37 16 16 37l0 260 261 0q21 0 36 16t15 37-16 37-37 16l-260 0 0 260q0 23-16 38t-37 15-37-16-16-37l0-260-260 0q-23 0-38-16t-15-37 16-37 37-16l260 0z" horiz-adv-x="938" />
<glyph glyph-name="plus" unicode="&#xe827;" d="M729 454q44 0 74-31t31-73-31-73-74-31l-208 4 0-213q0-43-31-73t-74-31-74 31-30 73l4 213-213-4q-44 0-74 31t-30 73 30 73 74 31l213 0-4 209q0 43 30 73t74 31 74-31 31-73l0-209 208 0z" horiz-adv-x="834" />
<glyph glyph-name="looped-square-outline" unicode="&#xe918;" d="M755 767q-75 0-129-53t-54-128l0-79-104 0 0 79q0 75-54 128t-129 53-129-53-54-128 54-129 129-54l79 0 0-105-79 0q-75 0-129-54t-54-129 54-128 129-53 129 53 54 128l0 79 104 0 0-79q0-75 54-128t129-53 129 53 54 128-54 129-129 54l-78 0 0 105 78 0q75 0 129 54t54 129-54 128-129 53z m-78-260l0 79q0 33 23 55t55 23 56-23 23-54q0-33-23-56t-56-23l-78 0z m-391 0q-31 0-54 23t-23 56 23 55 54 23q33 0 56-23t23-54l0-79-79 0z m469-469q-33 0-55 23t-23 55l0 79 78 0q33 0 56-23t23-56q0-31-23-54t-56-23z m-469 0q-31 0-54 23t-23 55 23 56 54 23l79 0 0-79q0-31-23-54t-56-23z m469 834q118 0 202-84t84-202q0-71-33-133t-89-102q56-40 89-102t33-133q0-118-84-202t-202-84q-71 0-133 33t-101 89q-40-56-102-89t-133-33q-119 0-203 84t-84 202q0 71 33 133t89 102q-56 40-89 102t-33 133q0 118 84 202t203 84q71 0 133-33t102-89q40 56 101 89t133 33z m-183-469l0-105-104 0 0 105 104 0z" horiz-adv-x="1041" />
<glyph glyph-name="looped-square-interest" unicode="&#xe919;" d="M651 403l-79 0 0-105 79 0q75 0 129-54t54-129-54-128-129-53-129 53-54 128l0 79-104 0 0-79q0-75-54-128t-129-53-129 53-54 128 54 129 129 54l78 0 0 105-78 0q-75 0-129 54t-54 129 54 128 129 53 129-53 54-128l0-79 104 0 0 79q0 75 54 128t129 53 129-53 54-128-54-129-129-54z m-79 183l0-79 79 0q31 0 54 23t23 56-23 55-54 23q-33 0-56-23t-23-54z m-313-470l0 79-78 0q-33 0-56-23t-23-56q0-31 23-54t56-23 55 23 23 55z m0 391l0 79q0 33-23 55t-55 23-56-23-23-54q0-33 23-56t56-23l78 0z m209-209l0 105-104 0 0-105 104 0z m183-104l-79 0 0-79q0-31 23-54t56-23q31 0 54 23t23 55-23 56-54 23z" horiz-adv-x="834" />
<glyph glyph-name="power-outline" unicode="&#xe8ec;" d="M756 622q129-129 129-313 0-185-129-314t-314-129q-184 0-313 129-130 130-130 314 0 183 130 313 66 66 156 39l0 18q0 65 46 111t111 46 111-46 46-111l0-18q40 13 83 3t74-41z m-366 56l0-261q0-21 16-36t37-15 37 15 16 36l0 261q0 21-16 36t-37 15-37-15-16-36z m-51-199q-9-24-25-41-54-54-54-129t54-129q51-51 129-51t129 51q54 54 54 129t-54 129q-15 15-24 41l0-63q0-43-31-73t-74-31q-43 0-73 30t-31 74l0 63z m104-405q-95 0-164 69t-69 166q0 98 69 166 15 15 15 36t-15 36-37 15-37-15q-100-100-100-239 0-140 100-240 99-99 239-99 141 0 240 99t99 240q0 140-99 239-15 15-37 15t-37-15-15-36 15-36q69-69 69-166 0-96-70-166t-165-69z" horiz-adv-x="885" />
<glyph glyph-name="power" unicode="&#xe8ed;" d="M339 75q95 0 164 69t69 166q0 98-69 166-15 15-15 36t15 36 37 15 37-15q100-100 100-239 0-140-100-240-99-99-239-99-141 0-240 99t-99 240q0 140 99 239 15 15 37 15t37-15 15-36-15-36q-69-69-69-166 0-96 69-166t166-69z m0 291q-21 0-37 15t-16 36l0 261q0 21 16 36t37 15 36-15 15-36l0-261q0-21-15-36t-36-15z" horiz-adv-x="678" />
<glyph glyph-name="print" unicode="&#xe857;" d="M729 689q65 0 111-46t46-111l0-521q0-65-46-111t-111-46l-573 0q-65 0-111 46t-46 111l0 521q0 65 46 111t111 46l0 104q0 21 16 37t37 16l469 0q21 0 36-16t15-37l0-104z m-469 51l0-260 365 0 0 260-365 0z m-104-156q-21 0-37-15t-16-36l0-131q0-31 23-54t56-23l520 0q33 0 56 23t23 54l0 131q0 21-16 36t-37 15l0-156q0-21-15-36t-36-15l-469 0q-21 0-37 15t-16 36l0 156z m573-625q21 0 37 16t16 37l0 288q-36-28-79-28l-520 0q-43 0-79 28l0-288q0-21 16-37t37-16l573 0z m-181 625q25 0 25-25 0-26-25-26l-209 0q-11 0-19 8t-8 19q0 25 26 25l209 0z m78-469q11 0 19-8t8-19q0-25-26-25l-365 0q-25 0-25 25 0 26 25 26l365 0z m-78 574q25 0 25-26t-25-26l-209 0q-11 0-19 8t-8 19 8 19 19 8l209 0z" horiz-adv-x="885" />
<glyph glyph-name="puzzle-outline" unicode="&#xe90e;" d="M0 168q0 81 68 118-68 35-68 116l0 91q0 75 54 129t129 54l39 0q6 78 69 130t152 53 152-53 69-130l39 0q75 0 129-54t54-129l0-91q0-81-68-118 68-35 68-116l0-144q0-75-54-129t-129-54l-143 0q-81 0-118 68-35-68-118-68l-143 0q-75 0-129 54t-54 129l0 144z m781-144l0 144q0 25-19 25-13 0-30-13t-43-13q-38 0-64 34t-27 83 27 83 64 34q28 0 51-20 9-6 20-6 20 0 20 26l0 91q0 33-23 56t-56 23l-143 0q-16 0-23 9t3 31q20 24 20 51 0 38-34 64t-83 26-83-26-34-64q0-21 14-44 18-26 11-37t-25-11l-143 0q-33 0-56-23t-23-56l0-91q0-26 20-26 9 0 29 14 18 13 43 13 38 0 64-34t27-83-27-83-64-34q-28 0-51 20-10 6-20 6-20 0-20-26l0-144q0-31 23-54t56-23l143 0q19 0 24 11t-11 37q-14 20-14 44 0 38 34 64t83 26 83-26 34-64q0-28-20-51-10-21-3-31t23-9l143 0q33 0 56 23t23 54z m-678 303l0-83q6 3 20 3 33 0 55-20 8-8 16-8 15 0 28 19t13 47-13 46-28 19q-3 0-18-8-29-19-54-19-8 0-20 3z m659-81q6 0 19-3l0 83q-6-3-20-3-31 0-54 20-8 8-18 8-15 0-27-19t-12-46 12-47 27-19q4 0 19 8 29 19 54 19z m-363-299l84 0q-13 41 16 74 8 8 8 18 0 15-19 27t-46 12-46-12-19-27q0-4 8-19 25-36 15-73z" horiz-adv-x="885" />
<glyph glyph-name="puzzle" unicode="&#xe90f;" d="M586 402q-38 0-64-34t-27-83 27-83 64-34q21 0 43 13 26 18 38 12t11-24l0-144q0-31-23-54t-56-23l-143 0q-16 0-24 9t3 31q21 25 21 51 0 38-34 64t-83 26-83-26-34-64q0-23 13-44 18-26 12-37t-24-11l-144 0q-33 0-55 23t-23 54l0 144q0 16 9 23t31-3q24-20 51-20 38 0 64 34t27 83-27 83-64 34q-21 0-43-13-26-18-38-12t-11 24l0 91q0 33 23 56t54 23l144 0q19 0 24 11t-11 37q-14 20-14 44 0 38 34 64t83 26 83-26 34-64q0-26-21-51-10-21-3-31t24-9l143 0q31 0 55-23t24-56l0-91q0-16-9-23t-31 3q-24 20-51 20z" horiz-adv-x="678" />
<glyph glyph-name="target-outline" unicode="&#xe8c9;" d="M443 793q183 0 313-130t130-313-130-313-313-130-313 130-130 313 130 313 313 130z m0-780q140 0 239 99t99 239-99 239-239 99-239-99-99-239 99-239 239-99z m183 390q-21 0-37-16t-16-37 16-36 37-15l46 0q-15-66-63-114t-113-63l0 45q0 21-16 37t-37 16-37-16-16-37l0-45q-65 15-113 63t-63 114l45 0q21 0 37 15t16 36-16 37-37 16l-45 0q15 66 63 114t113 63l0-46q0-21 16-37t37-16 37 16 16 37l0 46q65-15 113-63t63-113l-46 0z m-31-151q-33 10-53 38t-20 61 20 61 53 38q-21 31-53 53-10-33-38-53t-61-20-61 20-38 53q-31-21-53-53 33-10 53-38t21-61-21-61-53-38q19-30 53-51 10 33 38 53t61 20 61-20 38-53q34 21 53 51z" horiz-adv-x="885" />
<glyph glyph-name="cw-outline" unicode="&#xe8aa;" d="M696 767q54 0 95-41t43-119l0-258q0-180-123-298t-295-118-294 122-122 294 122 295 294 123q93 0 179-40 49 40 101 40z m-471-426q0 74 54 128t128 54q58 0 100-28l-76-74q-31-31-21-51t54-20l266 0 0 258q0 55-33 55-20 0-44-24l-60-60q-81 64-186 64-125 0-214-89-88-88-88-214t88-214q89-89 214-89t214 89q25 25 41 50 19 29 2 61t-53 33q-33 0-50-28-24-36-66-60t-88-24q-74 0-128 54t-54 128z m53 0q0-54 38-91t91-38q53 0 91 39 10 10 18 22t12 19l3 6-68 0q-81 0-103 49-20 48 34 101l13 6q-60 0-91-31-38-36-38-83z" horiz-adv-x="834" />
<glyph glyph-name="rss-outline" unicode="&#xe874;" d="M156 767q138 0 263-54t216-144 144-216 54-263q0-65-46-111t-111-46l-469 0q-86 0-148 61t-61 148l0 469q0 65 46 111t111 46z m53-730q43 0 73 31t31 74q0 43-30 73t-74 31-74-31-30-73q0-44 31-74t73-31z m235 0q33 0 55 23t23 56q0 140-99 239t-239 99q-33 0-55-23t-23-56 23-55 55-23q75 0 129-54t54-129q0-33 23-56t56-23z m208 0q33 0 56 23t23 56q0 148-74 274t-199 199-274 73q-33 0-55-23t-23-55 23-56 55-23q161 0 276-114t115-276q0-33 23-56t55-23z" horiz-adv-x="834" />
<glyph glyph-name="rss" unicode="&#xe875;" d="M104 142q44 0 74-31t31-73-31-73-74-31-74 31-30 73 30 73 74 31z m0 625q198 0 366-98t266-266 98-366q0-43-31-73t-74-31-74 31-30 73q0 215-153 368t-369 153q-44 0-74 31t-30 73 30 73 74 31z m0-313q173 0 295-122t123-294q0-43-31-73t-74-31-74 31-30 73q0 86-61 148t-148 61q-44 0-74 31t-30 73 30 73 74 31z" horiz-adv-x="834" />
<glyph glyph-name="scissors-outline" unicode="&#xe906;" d="M861 682q23 31 66 31 23 0 55-15-3 3-6 8t-8 11-9 9q-34 34-93 34-39 0-98-34-3 0-5 1t-5 1q-74 0-115-63-15-23-64-107t-79-119q-30 35-80 120t-64 106q-41 63-115 63-58 0-99-41t-41-99 41-98 99-41q73 0 114 60l86-136q-40-45-82-101t-64-91l-21-34q-23-40-14-86t31-83l23-38 185 340 185-340q4 5 10 14t19 36 21 51 7 54-16 51q-79 126-168 226l86 136q41-60 114-60 58 0 98 41t41 98q0 55-38 95z m-101-150q-29 0-45 24t-6 51l13 20q16 16 39 16 24 0 40-16t16-39-16-39-40-16z m-518 0q-23 0-39 16t-16 39 16 39 39 16q24 0 40-16l13-20q10-28-7-51t-46-24z m259-196q-9 0-14 6t-6 15q0 20 20 20 9 0 15-6t6-14-6-15-15-6z m366 529q63 0 113-27t81-71q51-69 5-130-25-33-63-40l0-9q0-100-72-172t-172-72q-18 0-48 5 63-83 103-146 31-45 34-99t-16-103-33-76-29-48q-31-43-85-43-63 0-91 54l-94 173-93-173q-29-54-93-54-53 0-84 43-15 21-29 48t-33 76-16 103 34 99q48 74 101 146-30-5-48-5-100 0-171 72t-71 172 71 171 171 71q125 0 203-109 28-41 56-93 45 79 61 99 66 94 180 101 64 35 125 35z" horiz-adv-x="1088" />
<glyph glyph-name="box" unicode="&#xe873;" d="M678 793q65 0 111-46t46-111l0-573q0-65-46-111t-111-46l-521 0q-65 0-111 46t-46 111l0 573q0 65 46 111t111 46l521 0z m51-729l0 379q-24-14-51-14l-79 0q0-75-54-129t-129-54-128 54-53 129l-79 0q-29 0-53 14l0-379q0-21 16-37t37-16l521 0q21 0 36 16t15 37z m-443 365q0-54 38-92t92-38 93 38 39 92l-261 0z m443 104l0 104q0 21-15 37t-36 16l-521 0q-21 0-37-16t-16-37l0-104q0-21 16-37t37-16l521 0q21 0 36 16t15 37z" horiz-adv-x="834" />
<glyph glyph-name="basket" unicode="&#xe87e;" d="M950 715q23 0 39-19t13-41l-53-365q-3-19-17-31t-34-13l-590 0 9-53 529 0q21 0 37-16t16-37-16-36-37-15l-573 0q-20 0-34 13t-17 30l-98 583-73 0q-21 0-37 15t-16 36 16 37 37 16l116 0q19 0 34-13t18-31l11-60 719 0z m-60-105l-200 0 0-104 185 0z m-253 0l-156 0 0-104 156 0 0 104z m0-156l-156 0 0-104 156 0 0 104z m-208 156l-183 0 19-105q3 1 8 1l156 0 0 104z m-156-156l18-104 139 0 0 104-156 0z m416-104l164 0 14 104-178 0 0-104z m-416-390q0 78 78 78 79 0 79-78 0-79-79-79-78 0-78 79z m469 0q0 78 78 78 79 0 79-78 0-79-79-79-78 0-78 79z" horiz-adv-x="1003" />
<glyph glyph-name="at-circled" unicode="&#xe917;" d="M460 585q96 0 163-69t66-166l0-13q0-39-24-65t-61-26q-35 0-63 31-29-31-75-31-44 0-74 31t-30 73q0 44 30 74t73 30q28 0 53-15 6 15 21 15 20 0 20-26l0-90q0-16 11-28t28-12 28 12 11 28l0 13q0 75-51 129t-126 54q-74 0-124-53t-51-129q0-75 54-129t129-54q55 0 103 31 13 9 25 1t14-21-11-23q-61-41-133-41-96 0-166 69t-69 166q0 98 67 166t163 69z m8-288q21 0 36 16t15 37-15 37-36 16-37-16-16-37 16-37 37-16z m1-416q-194 0-331 138t-138 331 138 331 331 138 331-138 138-331-138-331-331-138z m0 834q-151 0-258-107t-107-258 107-258 258-107 258 107 107 258-107 258-258 107z" horiz-adv-x="938" />
<glyph glyph-name="dribbble-circled" unicode="&#xe91e;" d="M469-119q-194 0-331 138t-138 331 138 331 331 138 331-138 138-331-138-331-331-138z m0 834q-151 0-258-107t-107-258 107-258 258-107 258 107 107 258-107 258-258 107z m0-79q119 0 203-84t84-202-84-202-203-84-203 84-84 202 84 202 203 84z m234-281q-3 90-64 156-46-63-120-108 19-40 23-51 80 18 161 3z m-104 190q-60 40-130 40-21 0-61-10 50-58 88-125 60 35 104 95z m-243 10q-91-50-115-153 104-20 208 24-40 71-93 129z m-121-205q0-91 63-158 74 101 194 145-3 6-6 13t-7 15-6 13q-81-35-165-35-31 0-73 6z m101-193q61-43 133-43 34 0 71 13-5 78-31 161-109-39-173-131z m254-8q88 54 109 153-75 14-140 1 24-81 31-154z" horiz-adv-x="938" />
<glyph glyph-name="dribbble" unicode="&#xe91f;" d="M469 819q194 0 331-138t138-331-138-331-331-138-331 138-138 331 138 331 331 138z m363-431q-14 133-109 224-81-106-193-170l30-68q134 36 271 14z m-148 256q-98 71-215 71-54 0-109-16 83-95 146-211 106 61 178 156z m-374 34q-78-38-131-107t-69-154q185-30 350 46-64 118-150 215z m-206-328q0-135 89-238 119 175 318 246-14 30-28 59-133-63-273-63-49 0-105 10 0-3-1-8t-1-8z m125-274q104-91 240-91 64 0 128 24-13 150-68 301-188-66-300-234z m418-45q81 45 132 126t54 178q-130 23-254-10 53-140 68-294z" horiz-adv-x="938" />
<glyph glyph-name="facebook-circled" unicode="&#xe920;" d="M800 683q138-138 138-333 0-194-138-331t-331-138q-195 0-333 138-136 136-136 331 0 196 136 333 135 136 333 136 195 0 331-136z m-384-271q0 61 39 104t98 43l73 0 0-105-73 0q-13 0-22-9t-9-22l0-73 104 0 0-104-104 0 0-258q116 15 205 104 108 108 108 258 0 153-108 259t-258 106q-153 0-259-106t-106-259q0-150 106-258 89-89 206-104l0 258-104 0 0 104 104 0 0 61z" horiz-adv-x="938" />
<glyph glyph-name="facebook" unicode="&#xe921;" d="M313 454l156 0 0-156-156 0 0-364-156 0 0 364-156 0 0 156 156 0 0 66q0 50 16 101t43 81q58 64 145 64l109 0 0-156-109 0q-20 0-34-13t-14-33l0-110z" horiz-adv-x="469" />
<glyph glyph-name="flickr-circled" unicode="&#xe922;" d="M469-119q-195 0-333 138-136 136-136 331 0 196 136 333 135 136 333 136 195 0 331-136 138-138 138-333 0-194-138-331t-331-138z m0 834q-153 0-259-106t-106-259q0-150 106-258t259-108q150 0 258 108t108 258q0 153-108 259t-258 106z m-156-495q-54 0-92 38t-38 92 38 92 92 38 92-38 38-92-38-92-92-38z m0 208q-33 0-55-23t-23-55 23-55 55-23 55 23 23 55-23 55-55 23z m313-208q-54 0-92 38t-38 92 38 92 92 38 92-38 38-92-38-92-92-38z" horiz-adv-x="938" />
<glyph glyph-name="flickr" unicode="&#xe923;" d="M209 142q-86 0-148 61t-61 148 61 148 148 61 147-61 61-148-61-148-147-61z m0 313q-44 0-74-31t-31-73 31-73 74-31 74 31 30 73-30 73-74 31z m469 105q86 0 147-61t61-148-61-148-147-61-148 61-61 148 61 148 148 61z" horiz-adv-x="885" />
<glyph glyph-name="github-circled" unicode="&#xe924;" d="M469-119q-194 0-331 138t-138 331 138 331 331 138 331-138 138-331-138-331-331-138z m0 834q-151 0-258-107t-107-258 107-258 258-107 258 107 107 258-107 258-258 107z m48-444q0 18 9 32t24 14q14 0 23-14t9-32-9-31-24-14-24 14-9 31z m-91-119q-190 0-190 185 0 58 38 99-5 3-1 41t18 71q50-6 116-53 25 6 64 6 41 0 64-6 63 44 104 50l13 3q14-34 18-71 4-39-1-41 38-41 38-99 0-185-190-185-3 0-21-1t-23-1-22 1-22 1z m45 23q86 0 128 20 44 21 44 84 0 28-18 50t-44 28q-11 1-59-1t-51-3q-14 0-40 2t-43 3-34-3-29-14q-26-23-26-61 0-64 43-84 41-20 128-20l3 0z m-81 143q14 0 23-14t9-32-9-31-23-14q-15 0-24 14t-9 31 9 32 24 14z" horiz-adv-x="938" />
<glyph glyph-name="github" unicode="&#xe925;" d="M439 228q0 28 14 49t38 22q23 0 37-22t14-49-14-49-37-22q-24 0-38 22t-14 49z m-74-186q-6 0-35 1t-34 1q-144 0-220 73t-76 216q0 89 59 154-5 4 0 63 6 65 25 111 73-8 181-83 38 10 100 10 64 0 100-10 46 33 94 54 46 21 66 25l20 4q20-50 26-111 5-58-1-63 59-65 59-154 0-161-98-234-75-55-199-55-5 0-33-1t-34-1z m1 36q133 0 199 31 68 31 68 130 0 43-28 79t-68 43q-18 3-94-1t-78-4q-21 0-62 3t-65 3-53-6-46-21q-41-38-41-95 0-99 66-130 64-31 198-31l4 0z m-126 221q23 0 36-22t14-49-14-49-36-22q-24 0-39 22t-15 49 15 49 39 22z" horiz-adv-x="729" />
<glyph glyph-name="lastfm-circled" unicode="&#xe926;" d="M469-119q-195 0-333 138-136 136-136 331 0 196 136 333 135 136 333 136 195 0 331-136 138-138 138-333 0-194-138-331t-331-138z m0 834q-153 0-259-106t-106-259q0-150 106-258t259-108q150 0 258 108t108 258q0 153-108 259t-258 106z m115-486q104 0 104 69 0 59-66 74l-33 6q-28 8-28 30 0 26 34 26 38 0 40-30l51 5q-6 65-88 65-89 0-89-74 0-54 58-66l35-6q35-10 35-31 0-28-54-28-66 0-88 64l-18 50q-15 50-38 71t-75 21q-50 0-84-38t-34-90q0-50 33-84t81-34q48 0 75 23l-15 44q-25-25-58-25-30 0-49 23t-19 56q0 38 19 60t53 23q21 0 34-9t19-20 13-34l16-50q29-89 134-89z" horiz-adv-x="938" />
<glyph glyph-name="lastfm" unicode="&#xe927;" d="M596 133q185 0 185 124 0 101-118 129l-59 13q-49 13-49 53 0 46 61 46 68 0 71-53l90 10q-9 114-155 114-158 0-158-130 0-93 103-118l61-11q63-15 63-56 0-49-96-49-118 0-155 114l-30 90q-28 89-70 125-40 35-131 35-84 0-146-61-64-61-64-164 0-96 60-153 59-58 144-58 83 0 133 40l-28 78q-44-44-101-44-53 0-87 41t-34 98q0 78 39 113 40 36 88 36 53 0 76-28 21-28 41-88l29-89q49-158 238-158z" horiz-adv-x="781" />
</font>
</defs>
</svg>
